The Colony (2013) 720p BDRip Audio Inglés [Subt. Esp] (Ciencia ficción. Thriller. Acción)

Maestro Revolver

Well-known member
Miembro del Staff
Administrador
Registro
9 Ago 2012
Mensajes
3.567








TÍTULO ORIGINAL: The Colony
AÑO: 2013
DURACIÓN: 94 min.
PAÍS: USA
DIRECTOR: Jeff Renfroe
GUIÓN: Jeff Renfroe, Svet Rouskov, Patrick Tarr, Pascal Trottier
REPARTO: Laurence Fishburne, Kevin Zegers, Bill Paxton, Charlotte Sullivan, John Tench, Atticus Dean Mitchell, Dru Viergever, Romano Orzari, Lisa Berry, Lucius Hoyos, Michael Mando, Eric Murdoch, Kimberly-Sue Murray, Jeff Smith
PRODUCTORA: Alcina Pictures / Item 7 / Mad Samurai Productions
GÉNERO: Ciencia ficción. Thriller. Acción
: http://www.imdb.com/title/tt1160996/






Se centra en un grupo de supervivientes que viven bajo tierra después de que una nueva edad de hielo aparezca en el planeta mientras se defienden de una invasión de fieros caníbales.
























La pelicula NO tiene ninguna marca... solo colocamos el nombre de esta web en las capturas






Código:
General
Format                                   : Matroska
Format version                           : Version 2
File size                                : 3.79 GiB
Duration                                 : 1h 34mn
Overall bit rate                         : 5 744 Kbps
Movie name                               : www.club-hd.com
Encoded date                             : UTC 2013-09-06 16:24:35
Writing application                      : mkvmerge v5.7.0 ('The Whirlwind') built on Jul  8 2012 20:08:51
Writing library                          : libebml v1.2.3 + libmatroska v1.3.0

Video
ID                                       : 1
Format                                   : AVC
Format/Info                              : Advanced Video Codec
Format profile                           : High@L4.1
Format settings, CABAC                   : Yes
Format settings, ReFrames                : 12 frames
Codec ID                                 : V_MPEG4/ISO/AVC
Duration                                 : 1h 34mn
Bit rate                                 : 5 105 Kbps
Width                                    : 1 280 pixels
Height                                   : 544 pixels
Display aspect ratio                     : 2.35:1
Frame rate mode                          : Constant
Frame rate                               : 23.976 fps
Color space                              : YUV
Chroma subsampling                       : 4:2:0
Bit depth                                : 8 bits
Scan type                                : Progressive
Bits/(Pixel*Frame)                       : 0.306
Stream size                              : 3.29 GiB (87%)
Title                                    : www.club-hd.com
Language                                 : English
Default                                  : Yes
Forced                                   : No
Matrix coefficients                      : BT.709

Audio
ID                                       : 2
Format                                   : AC-3
Format/Info                              : Audio Coding 3
Mode extension                           : CM (complete main)
Format settings, Endianness              : Big
Codec ID                                 : A_AC3
Duration                                 : 1h 34mn
Bit rate mode                            : Constant
Bit rate                                 : 640 Kbps
Channel(s)                               : 6 channels
Channel positions                        : Front: L C R, Side: L R, LFE
Sampling rate                            : 48.0 KHz
Bit depth                                : 16 bits
Compression mode                         : Lossy
Stream size                              : 432 MiB (11%)
Title                                    : www.club-hd.com
Language                                 : English
Default                                  : Yes
Forced                                   : No

Text
ID                                       : 3
Format                                   : UTF-8
Codec ID                                 : S_TEXT/UTF8
Codec ID/Info                            : UTF-8 Plain Text
Language                                 : Spanish
Default                                  : Yes
Forced                                   : No

Menu
00:00:00.000                             : en:00:00:00.000
00:05:53.728                             : en:00:05:53.728
00:10:33.591                             : en:00:10:33.591
00:16:26.986                             : en:00:16:26.986
00:22:16.710                             : en:00:22:16.710
00:29:13.001                             : en:00:29:13.001
00:34:23.770                             : en:00:34:23.770
00:41:45.461                             : en:00:41:45.461
00:46:29.829                             : en:00:46:29.829
00:51:49.940                             : en:00:51:49.940
00:56:46.403                             : en:00:56:46.403
01:04:19.856                             : en:01:04:19.856
01:12:08.950                             : en:01:12:08.950
01:16:49.480                             : en:01:16:49.480
01:21:19.416                             : en:01:21:19.416
01:25:46.391                             : en:01:25:46.391








Enlaces de Mega y Google Drive solo disponibles para Miembros VIP

Compra tu Membresía VIP y apoya a Club-HD!

ATENCIÓN! Tenemos TODO el material de Club-HD disponible por Mega y Google Drive, enlaces 100% activos y online hasta la fecha

Llévate tus cuentas Mega PRO III gratis con tu membresía VIP!
Todos los posts vivos con links de Mega y Google Drive.
Todo el material de Club-HD desbloqueado y sin publicidad.

Click Aquí para más información.


Para ver este contenido oculto, debes dar click en una de las siguientes reacciones : Like Like, Love Love, Haha Haha, Wow Wow, Sad Sad, Angry Angry



 
Última edición por un moderador:

HemoAr

Dohko de Libra
Administrador
Uploader
Miembro VIP
Registro
9 Mar 2013
Mensajes
10.597
Ubicación
Rozan
Buenissima. Sin duda alguna me gusto mucho cuando vi el Trailer que subio Pedrum. Gracias Master Revolver22, sin duda alguna siempre y cada finde nos traes cosas nuevas y muy buenas.- Se agradece de corazon.
 

Usuarios Que Están Viendo Este Tema (Total: 1, Miembros: 0, Invitados: 1)

Quién Leyó Este Tema (Total Miembros: 4)

Arriba