The Completely Made-Up Adventures of Dick Turpin: Season 1 ATVP WEB-DL 1080p Latino-Inglés [Subt.Esp] (Comedia)

LuchoO

責任者

Moderador
Uploader
Registro
15 Ago 2015
Mensajes
1.833
Reacciones (ptje)
27.592

cover.png



FICHA.TECNICA.png

Captura.JPG


SINOPSIS.PNG



Serie de TV (2024-). 1 temporada. 6 episodios. El legendario bandolero Dick Turpin se embarca en una serie de absurdas aventuras cuando lo nombran, a regañadientes, líder de su banda de delincuentes, y le encargan deshacerse del agente corrupto Jonathan Wilde.

7.0



TRAILER.PNG



CAPTURAS.PNG


TC.0001.jpeg


TC.0002.jpeg


TC.0003.jpeg


TC.0004.jpeg



MEDIAINFO.PNG

General
Complete name : The Completely Made-Up Adventures of Dick Turpin S01E01 ATVP WEB-DL 1080p H264 Dual.mkv
Format : Matroska
Format version : Version 4
File size : 2.49 GiB
Duration : 32 min 27 s
Overall bit rate : 11.0 Mb/s
Frame rate : 23.976 FPS
Movie name : [Club-HD] The Completely Made-Up Adventures of Dick Turpin S01E01 ATVP WEB-DL 1080p H264 Dual.mkv
Encoded date : 2024-03-14 22:48:55 UTC
Writing application : mkvmerge v77.0 ('Elemental') 64-bit
Writing library : libebml v1.4.4 + libmatroska v1.7.1

Video
ID : 1
Format : AVC
Format/Info : Advanced Video Codec
Format profile : High@L4
Format settings : CABAC / 4 Ref Frames
Format settings, CABAC : Yes
Format settings, Reference frames : 4 frames
Codec ID : V_MPEG4/ISO/AVC
Duration : 32 min 27 s
Bit rate : 9 817 kb/s
Width : 1 920 pixels
Height : 960 pixels
Display aspect ratio : 2.000
Frame rate mode : Constant
Frame rate : 23.976 (24000/1001) FPS
Color space : YUV
Chroma subsampling : 4:2:0
Bit depth : 8 bits
Scan type : Progressive
Bits/(Pixel*Frame) : 0.222
Stream size : 2.23 GiB (89%)
Language : English
Default : Yes
Forced : No
Color range : Limited
Color primaries : BT.709
Transfer characteristics : BT.709
Matrix coefficients : BT.709

Audio #1
ID : 2
Format : AC-3
Format/Info : Audio Coding 3
Commercial name : Dolby Digital
Codec ID : A_AC3
Duration : 32 min 27 s
Bit rate mode : Constant
Bit rate : 384 kb/s
Channel(s) : 6 channels
Channel layout : L R C LFE Ls Rs
Sampling rate : 48.0 kHz
Frame rate : 31.250 FPS (1536 SPF)
Compression mode : Lossy
Stream size : 89.2 MiB (3%)
Language : Spanish (Latin America)
Service kind : Complete Main
Default : Yes
Forced : No

Audio #2
ID : 3
Format : E-AC-3 JOC
Format/Info : Enhanced AC-3 with Joint Object Coding
Commercial name : Dolby Digital Plus with Dolby Atmos
Codec ID : A_EAC3
Duration : 32 min 27 s
Bit rate mode : Constant
Bit rate : 768 kb/s
Channel(s) : 6 channels
Channel layout : L R C LFE Ls Rs
Sampling rate : 48.0 kHz
Frame rate : 31.250 FPS (1536 SPF)
Compression mode : Lossy
Stream size : 178 MiB (7%)
Language : English
Service kind : Complete Main
Default : No
Forced : No
Complexity index : 16
Number of dynamic objects : 15
Bed channel count : 1 channel
Bed channel configuration : LFE

Text #1
ID : 4
Format : UTF-8
Codec ID : S_TEXT/UTF8
Codec ID/Info : UTF-8 Plain Text
Duration : 31 min 20 s
Bit rate : 0 b/s
Frame rate : 0.004 FPS
Count of elements : 8
Stream size : 234 Bytes (0%)
Title : Forced
Language : Spanish (Latin America)
Default : Yes
Forced : Yes

Text #2
ID : 5
Format : UTF-8
Codec ID : S_TEXT/UTF8
Codec ID/Info : UTF-8 Plain Text
Duration : 32 min 12 s
Bit rate : 89 b/s
Frame rate : 0.322 FPS
Count of elements : 623
Stream size : 21.2 KiB (0%)
Language : Spanish (Latin America)
Default : No
Forced : No

Text #3
ID : 6
Format : UTF-8
Codec ID : S_TEXT/UTF8
Codec ID/Info : UTF-8 Plain Text
Duration : 31 min 21 s
Bit rate : 101 b/s
Frame rate : 0.365 FPS
Count of elements : 687
Stream size : 23.4 KiB (0%)
Title : SDH
Language : Spanish (Latin America)
Default : No
Forced : No

Text #4
ID : 7
Format : UTF-8
Codec ID : S_TEXT/UTF8
Codec ID/Info : UTF-8 Plain Text
Duration : 31 min 14 s
Bit rate : 98 b/s
Frame rate : 0.328 FPS
Count of elements : 614
Stream size : 22.4 KiB (0%)
Language : English
Default : No
Forced : No

Text #5
ID : 8
Format : UTF-8
Codec ID : S_TEXT/UTF8
Codec ID/Info : UTF-8 Plain Text
Duration : 31 min 16 s
Bit rate : 107 b/s
Frame rate : 0.358 FPS
Count of elements : 671
Stream size : 24.6 KiB (0%)
Title : SDH
Language : English
Default : No
Forced : No

Menu
00:00:00.000 : en:Studio Logo
00:00:08.963 : en:Main
00:31:35.333 : en:Credits


DESCARGA.PNG




⭐ 1 LINK MKV VIP ⭐

Mega.png

Tenemos TODO el material de Club-HD disponible por Mega, enlaces 100% activos y online hasta la fecha

Llévate tus cuentas Mega PRO III gratis con tu membresía VIP!
Todos los posts vivos con links de Mega.
Todo el material de Club-HD desbloqueado y sin publicidad.

Obtén más información sobre nuestras Membresías VIP


LINKS FREE PÚBLICOS

1cloudfile.png

[Season 01 - 06 Capítulos]
¡Click aquí para descargar desde 1cloudfile!

 
Volver