The Count of Monte Cristo (2002) m-1080p BDRip Dual Latino-Inglés [Subt. Esp] (Aventura)

Maestro Revolver

Well-known member
Miembro del Staff
Administrador
Registro
9 Ago 2012
Mensajes
3.567








TÍTULO ORIGINAL: The Count of Monte Cristo
AÑO: 2002
DURACIÓN: 115 min.
PAÍS: USA
DIRECTOR: Kevin Reynolds
GUIÓN: Jay Wolpert (Novela: Alejandro Dumas)
REPARTO: James Caviezel (AKA Jim Caviezel), Guy Pearce, Richard Harris, Luis Guzmán, Michael Wincott, Dagmara Dominczyk, James Frain
PRODUCTORA: Coprod. USA-GB; Spyglass Entertainment / Touchstone Pictures
GÉNERO: Aventuras | Histórico. Siglo XIX
: http://www.imdb.com/title/tt0245844/






El honrado e inocente Edmond Dantes (Jim Caviezel) es traicionado por su mejor amigo (Guy Pearce) y encerrado de por vida en las mazmorras de la fortaleza de la isla de If. Con el paso de los años va cambiando y elabora los más despiadados planes de venganza. Tras una milagrosa fuga, Edmond se convierte en el misterioso y acaudalado Conde de Montecristo, y se introduce en los círculos de la nobleza francesa para llevar a cabo sus proyectos.
























La pelicula NO tiene ninguna marca... solo colocamos el nombre de esta web en las capturas






Código:
General
Format                                   : Matroska
Format version                           : Version 2
File size                                : 4.98 GiB
Duration                                 : 2h 11mn
Overall bit rate                         : 5 428 Kbps
Movie name                               : www.club-hd.com
Encoded date                             : UTC 2013-05-14 23:03:23
Writing application                      : mkvmerge v5.7.0 ('The Whirlwind') built on Jul  8 2012 20:08:51
Writing library                          : libebml v1.2.3 + libmatroska v1.3.0

Video
ID                                       : 1
Format                                   : AVC
Format/Info                              : Advanced Video Codec
Format profile                           : Main@L4.0
Format settings, CABAC                   : Yes
Format settings, ReFrames                : 4 frames
Codec ID                                 : V_MPEG4/ISO/AVC
Duration                                 : 2h 11mn
Bit rate                                 : 4 500 Kbps
Width                                    : 1 920 pixels
Height                                   : 1 040 pixels
Display aspect ratio                     : 1.85:1
Frame rate mode                          : Constant
Frame rate                               : 23.976 fps
Color space                              : YUV
Chroma subsampling                       : 4:2:0
Bit depth                                : 8 bits
Scan type                                : Progressive
Bits/(Pixel*Frame)                       : 0.094
Stream size                              : 4.00 GiB (80%)
Title                                    : www.club-hd.com
Writing library                          : x264 core 112
Language                                 : English
Default                                  : Yes
Forced                                   : No
Color primaries                          : BT.709
Transfer characteristics                 : BT.709
Matrix coefficients                      : BT.709

Audio #1
ID                                       : 2
Format                                   : AC-3
Format/Info                              : Audio Coding 3
Format profile                           : Dolby Digital
Mode extension                           : CM (complete main)
Format settings, Endianness              : Big
Codec ID                                 : A_AC3
Duration                                 : 2h 11mn
Bit rate mode                            : Constant
Bit rate                                 : 320 Kbps
Channel(s)                               : 2 channels
Channel positions                        : Front: L R
Sampling rate                            : 48.0 KHz
Bit depth                                : 16 bits
Compression mode                         : Lossy
Stream size                              : 301 MiB (6%)
Title                                    : www.club-hd.com  >>  Latino
Language                                 : Spanish
Default                                  : Yes
Forced                                   : No

Audio #2
ID                                       : 3
Format                                   : AC-3
Format/Info                              : Audio Coding 3
Mode extension                           : CM (complete main)
Format settings, Endianness              : Big
Codec ID                                 : A_AC3
Duration                                 : 2h 11mn
Bit rate mode                            : Constant
Bit rate                                 : 640 Kbps
Channel(s)                               : 6 channels
Channel positions                        : Front: L C R, Side: L R, LFE
Sampling rate                            : 48.0 KHz
Bit depth                                : 16 bits
Compression mode                         : Lossy
Stream size                              : 601 MiB (12%)
Title                                    : www.club-hd.com  >>  Inglés
Language                                 : English
Default                                  : No
Forced                                   : No

Text
ID                                       : 4
Format                                   : UTF-8
Codec ID                                 : S_TEXT/UTF8
Codec ID/Info                            : UTF-8 Plain Text
Language                                 : Spanish
Default                                  : No
Forced                                   : No

Menu
00:00:00.000                             : en:Chapter 1
00:06:15.124                             : en:Chapter 2
00:09:04.293                             : en:Chapter 3
00:13:55.668                             : en:Chapter 4
00:16:10.260                             : en:Chapter 5
00:21:20.696                             : en:Chapter 6
00:26:52.485                             : en:Chapter 7
00:30:35.124                             : en:Chapter 8
00:33:14.492                             : en:Chapter 9
00:36:23.764                             : en:Chapter 10
00:42:04.647                             : en:Chapter 11
00:46:05.345                             : en:Chapter 12
00:50:56.344                             : en:Chapter 13
00:56:43.400                             : en:Chapter 14
01:00:47.226                             : en:Chapter 15
01:05:06.652                             : en:Chapter 16
01:10:53.707                             : en:Chapter 17
01:15:16.512                             : en:Chapter 18
01:19:23.967                             : en:Chapter 19
01:23:14.864                             : en:Chapter 20
01:28:01.276                             : en:Chapter 21
01:34:09.769                             : en:Chapter 22
01:38:24.648                             : en:Chapter 23
01:41:44.848                             : en:Chapter 24
01:43:56.980                             : en:Chapter 25
01:49:40.323                             : en:Chapter 26
01:56:08.962                             : en:Chapter 27
02:02:01.814                             : en:Chapter 28
02:05:48.832                             : en:Chapter 29








Enlaces de Mega y Google Drive solo disponibles para Miembros VIP

Compra tu Membresía VIP y apoya a Club-HD!

ATENCIÓN! Tenemos TODO el material de Club-HD disponible por Mega y Google Drive, enlaces 100% activos y online hasta la fecha

Llévate tus cuentas Mega PRO III gratis con tu membresía VIP!
Todos los posts vivos con links de Mega y Google Drive.
Todo el material de Club-HD desbloqueado y sin publicidad.

Click Aquí para más información.


Enlaces de Mega y Google Drive solo disponibles para Miembros VIP

Compra tu Membresía VIP y apoya a Club-HD!

ATENCIÓN! Tenemos TODO el material de Club-HD disponible por Mega y Google Drive, enlaces 100% activos y online hasta la fecha

Llévate tus cuentas Mega PRO III gratis con tu membresía VIP!
Todos los posts vivos con links de Mega y Google Drive.
Todo el material de Club-HD desbloqueado y sin publicidad.

Click Aquí para más información.


Para ver este contenido oculto, debes dar click en una de las siguientes reacciones : Like Like, Love Love, Haha Haha, Wow Wow, Sad Sad, Angry Angry


Para ver este contenido oculto, debes dar click en una de las siguientes reacciones : Like Like, Love Love, Haha Haha, Wow Wow, Sad Sad, Angry Angry
 
Última edición por un moderador:

Usuarios Que Están Viendo Este Tema (Total: 1, Miembros: 0, Invitados: 1)

Quién Leyó Este Tema (Total Miembros: 3)

Arriba