The Croods (2013) 1080p BDRip Dual Latino-Inglés [Subt. Esp] (Animación)

Maestro Revolver

Well-known member
Miembro del Staff
Administrador
Registro
9 Ago 2012
Mensajes
3.567








TÍTULO ORIGINAL: The Croods
AÑO: 2013
DURACIÓN: 90 min.
PAÍS: USA
DIRECTOR: Kirk De Micco, Chris Sanders
GUIÓN: Kirk De Micco, Chris Sanders (Historia: John Cleese, Kirk De Micco, Chris Sanders)
REPARTO: Animation
PRODUCTORA: DreamWorks Animation
GÉNERO: Animación. Aventuras. Comedia | Prehistoria. Familia. 3-D
: http://www.imdb.com/title/tt0481499/






Prehistoria. Tras la destrucción de su hogar por un gran terremoto, Grug se ve obligado a emigrar con su familia. Mientras avanzan por un mundo desconocido y aterrador, se encuentran con un nómada de mente abierta que los deja a todos fascinados, sobre todo a la hija de Grug.
























La pelicula NO tiene ninguna marca... solo colocamos el nombre de esta web en las capturas






Código:
General
Format                                   : Matroska
Format version                           : Version 2
File size                                : 6.17 GiB
Duration                                 : 1h 38mn
Overall bit rate                         : 8 954 Kbps
Movie name                               : www.club-hd.com
Encoded date                             : UTC 2013-09-13 20:58:15
Writing application                      : mkvmerge v5.7.0 ('The Whirlwind') built on Jul  8 2012 20:08:51
Writing library                          : libebml v1.2.3 + libmatroska v1.3.0

Video
ID                                       : 1
Format                                   : AVC
Format/Info                              : Advanced Video Codec
Format profile                           : High@L4.1
Format settings, CABAC                   : Yes
Format settings, ReFrames                : 5 frames
Codec ID                                 : V_MPEG4/ISO/AVC
Duration                                 : 1h 38mn
Bit rate                                 : 6 419 Kbps
Width                                    : 1 920 pixels
Height                                   : 816 pixels
Display aspect ratio                     : 2.35:1
Frame rate mode                          : Constant
Frame rate                               : 23.976 fps
Color space                              : YUV
Chroma subsampling                       : 4:2:0
Bit depth                                : 8 bits
Scan type                                : Progressive
Bits/(Pixel*Frame)                       : 0.171
Stream size                              : 4.30 GiB (70%)
Title                                    : www.club-hd.com
Writing library                          : x264 core 133 r2334 a3ac64b
Language                                 : English
Default                                  : Yes
Forced                                   : No

Audio #1
ID                                       : 2
Format                                   : AC-3
Format/Info                              : Audio Coding 3
Mode extension                           : CM (complete main)
Format settings, Endianness              : Big
Codec ID                                 : A_AC3
Duration                                 : 1h 38mn
Bit rate mode                            : Constant
Bit rate                                 : 384 Kbps
Channel(s)                               : 6 channels
Channel positions                        : Front: L C R, Side: L R, LFE
Sampling rate                            : 48.0 KHz
Bit depth                                : 16 bits
Compression mode                         : Lossy
Stream size                              : 271 MiB (4%)
Title                                    : www.club-hd.com  >>  Latino AC3 5.1
Language                                 : Spanish
Default                                  : Yes
Forced                                   : No

Audio #2
ID                                       : 3
Format                                   : AC-3
Format/Info                              : Audio Coding 3
Mode extension                           : CM (complete main)
Format settings, Endianness              : Big
Codec ID                                 : A_AC3
Duration                                 : 1h 38mn
Bit rate mode                            : Constant
Bit rate                                 : 640 Kbps
Channel(s)                               : 6 channels
Channel positions                        : Front: L C R, Side: L R, LFE
Sampling rate                            : 48.0 KHz
Bit depth                                : 16 bits
Compression mode                         : Lossy
Stream size                              : 451 MiB (7%)
Title                                    : www.club-hd.com  >>  Inglés AC3 5.1
Language                                 : English
Default                                  : No
Forced                                   : No

Audio #3
ID                                       : 4
Format                                   : DTS
Format/Info                              : Digital Theater Systems
Mode                                     : 16
Format settings, Endianness              : Big
Codec ID                                 : A_DTS
Duration                                 : 1h 38mn
Bit rate mode                            : Constant
Bit rate                                 : 1 509 Kbps
Channel(s)                               : 6 channels
Channel positions                        : Front: L C R, Side: L R, LFE
Sampling rate                            : 48.0 KHz
Bit depth                                : 24 bits
Compression mode                         : Lossy
Stream size                              : 1.04 GiB (17%)
Title                                    : www.club-hd.com  >>  Inglés DTS 5.1
Language                                 : English
Default                                  : No
Forced                                   : No

Text
ID                                       : 5
Format                                   : UTF-8
Codec ID                                 : S_TEXT/UTF8
Codec ID/Info                            : UTF-8 Plain Text
Language                                 : Spanish
Default                                  : No
Forced                                   : No

Menu
00:00:00.000                             : en:00:00:00.000
00:02:34.988                             : en:00:02:34.988
00:04:51.750                             : en:00:04:51.750
00:09:01.249                             : en:00:09:01.249
00:12:21.115                             : en:00:12:21.115
00:14:04.802                             : en:00:14:04.802
00:18:33.029                             : en:00:18:33.029
00:21:56.982                             : en:00:21:56.982
00:23:24.737                             : en:00:23:24.737
00:26:49.775                             : en:00:26:49.775
00:28:37.132                             : en:00:28:37.132
00:30:25.657                             : en:00:30:25.657
00:32:48.633                             : en:00:32:48.633
00:36:03.370                             : en:00:36:03.370
00:38:33.561                             : en:00:38:33.561
00:41:34.534                             : en:00:41:34.534
00:44:38.843                             : en:00:44:38.843
00:48:02.630                             : en:00:48:02.630
00:52:10.961                             : en:00:52:10.961
00:55:17.481                             : en:00:55:17.481
01:00:14.778                             : en:01:00:14.778
01:03:58.084                             : en:01:03:58.084
01:05:48.736                             : en:01:05:48.736
01:08:44.037                             : en:01:08:44.037
01:10:47.285                             : en:01:10:47.285
01:12:37.144                             : en:01:12:37.144
01:14:01.646                             : en:01:14:01.646
01:19:48.575                             : en:01:19:48.575
01:23:09.860                             : en:01:23:09.860
01:25:16.737                             : en:01:25:16.737
01:28:04.321                             : en:01:28:04.321
01:30:02.230                             : en:01:30:02.230








Enlaces de Mega y Google Drive solo disponibles para Miembros VIP

Compra tu Membresía VIP y apoya a Club-HD!

ATENCIÓN! Tenemos TODO el material de Club-HD disponible por Mega y Google Drive, enlaces 100% activos y online hasta la fecha

Llévate tus cuentas Mega PRO III gratis con tu membresía VIP!
Todos los posts vivos con links de Mega y Google Drive.
Todo el material de Club-HD desbloqueado y sin publicidad.

Click Aquí para más información.



Para ver este contenido oculto, debes dar click en una de las siguientes reacciones : Like Like, Love Love, Haha Haha, Wow Wow, Sad Sad, Angry Angry



Para ver este contenido oculto, debes dar click en una de las siguientes reacciones : Like Like, Love Love, Haha Haha, Wow Wow, Sad Sad, Angry Angry
 
Última edición por un moderador:

Joker

Well-known member
Miembro del Staff
Súper Moderador
Registro
27 Ago 2012
Mensajes
1.349
Ubicación
Arkham Asylum
Desc_g_

Excelente Master!!! :OHHH:

Otro super estreno!!! :OHHH: De los mas esperados, muchísimos preguntaban por esta película en el chat y mi hermana me la pedía desde hace meses S_T1

Me la llevo para verla en este puente Mexicano de fiestas patrias :p

Gracias, Muchas Gracias!!! :aplausos::aplausos::aplausos:

Saludos :D
 
Última edición:

vyx

Well-known member
Colaborador
Miembro VIP
Registro
2 Sep 2012
Mensajes
950
gracias pero espero la de 720p
 

Usuarios Que Están Viendo Este Tema (Total: 1, Miembros: 0, Invitados: 1)

Quién Leyó Este Tema (Total Miembros: 4)

Arriba