The Day the Earth Stood Still (2008) 1080p BDRip Dual Latino-Inglés [Subt. Esp] (Ciencia ficción)

Maestro Revolver

Administrador
Registro
9 Ago 2012
Mensajes
3.157
Reacciones (ptje)
54.885


The-Day-the-Earth-Stood-Still-1080p.jpg




FichaTecnica.jpg


TÍTULO ORIGINAL: The Day the Earth Stood Still
AÑO: 2008
DURACIÓN: 110 min.
PAÍS: USA
DIRECTOR: Scott Derrickson
GUIÓN: David Scarpa (Remake: Edmund H. North. Historia: Harry Bates)
REPARTO: Keanu Reeves, Jennifer Connelly, Kathy Bates, John Cleese, Jon Hamm, Jaden Smith, Kyle Chandler, Robert Knepper, James Hong
PRODUCTORA: 20th Century-Fox / Earth Canada Productions
GÉNERO: Ciencia ficción | Extraterrestres. Remake
imdb-logo.png
: http://www.imdb.com/title/tt0970416/




Sinopsis.jpg


Un día la Dr. Helen Benson (Jennifer Connelly) es sacada repentinamente de su casa por la Agencia de Seguridad Nacional, y llevada junto a otros científicos para intentar explicar las causas de un misterioso objeto del espacio que va a chocar de forma inmintente contra la isla de Manhattan. Pero la colisión no se produce pues el OVNI, que resulta ser una nave espacial de origen desconocido, aterriza en medio de Central Park. Las extraordinarias circustancias que siguen a tan prodigioso acontecimiento, con el planeta entero en estado de shock, llevarán a Helen a conocer a Klaatu (Keanu Reeves), un extraterrestre humanoide que dice llegar a la Tierra -aparentemente con fines pacíficos- para advertir a la población... Remake del clásico de ciencia-ficción de 1951.




Trailer.jpg






Capturas.jpg


1.jpg


2.jpg


3.jpg


4.jpg


5.jpg


6.jpg


La pelicula NO tiene ninguna marca... solo colocamos el nombre de esta web en las capturas




MediaInfo.jpg


Código:
General
Format                                   : Matroska
Format version                           : Version 2
File size                                : 8.55 GiB
Duration                                 : 1h 43mn
Overall bit rate                         : 11.8 Mbps
Movie name                               : www.club-hd.com
Encoded date                             : UTC 2013-10-25 03:02:09
Writing application                      : mkvmerge v5.7.0 ('The Whirlwind') built on Jul  8 2012 20:08:51
Writing library                          : libebml v1.2.3 + libmatroska v1.3.0

Video
ID                                       : 1
Format                                   : AVC
Format/Info                              : Advanced Video Codec
Format profile                           : [email protected]
Format settings, CABAC                   : Yes
Format settings, ReFrames                : 5 frames
Codec ID                                 : V_MPEG4/ISO/AVC
Duration                                 : 1h 43mn
Bit rate                                 : 9 469 Kbps
Width                                    : 1 920 pixels
Height                                   : 816 pixels
Display aspect ratio                     : 2.35:1
Frame rate mode                          : Constant
Frame rate                               : 23.976 fps
Color space                              : YUV
Chroma subsampling                       : 4:2:0
Bit depth                                : 8 bits
Scan type                                : Progressive
Bits/(Pixel*Frame)                       : 0.252
Stream size                              : 6.68 GiB (78%)
Title                                    : www.club-hd.com
Writing library                          : x264 core 67 r1137 1fda882
Language                                 : English
Default                                  : Yes
Forced                                   : No

Audio #1
ID                                       : 2
Format                                   : AC-3
Format/Info                              : Audio Coding 3
Format profile                           : Dolby Digital
Mode extension                           : CM (complete main)
Format settings, Endianness              : Big
Codec ID                                 : A_AC3
Duration                                 : 1h 43mn
Bit rate mode                            : Constant
Bit rate                                 : 192 Kbps
Channel(s)                               : 2 channels
Channel positions                        : Front: L R
Sampling rate                            : 48.0 KHz
Bit depth                                : 16 bits
Compression mode                         : Lossy
Delay relative to video                  : 2s 500ms
Stream size                              : 142 MiB (2%)
Title                                    : www.club-hd.com  >>  Latino AC3 2.0
Language                                 : Spanish
Default                                  : Yes
Forced                                   : No

Audio #2
ID                                       : 3
Format                                   : AC-3
Format/Info                              : Audio Coding 3
Mode extension                           : CM (complete main)
Format settings, Endianness              : Big
Codec ID                                 : A_AC3
Duration                                 : 1h 43mn
Bit rate mode                            : Constant
Bit rate                                 : 640 Kbps
Channel(s)                               : 6 channels
Channel positions                        : Front: L C R, Side: L R, LFE
Sampling rate                            : 48.0 KHz
Bit depth                                : 16 bits
Compression mode                         : Lossy
Stream size                              : 474 MiB (5%)
Title                                    : www.club-hd.com  >>  Inglés AC3 5.1
Language                                 : English
Default                                  : No
Forced                                   : No

Audio #3
ID                                       : 4
Format                                   : DTS
Format/Info                              : Digital Theater Systems
Mode                                     : 16
Format settings, Endianness              : Big
Codec ID                                 : A_DTS
Duration                                 : 1h 43mn
Bit rate mode                            : Constant
Bit rate                                 : 1 509 Kbps
Channel(s)                               : 6 channels
Channel positions                        : Front: L C R, Side: L R, LFE
Sampling rate                            : 48.0 KHz
Bit depth                                : 24 bits
Compression mode                         : Lossy
Stream size                              : 1.09 GiB (13%)
Title                                    : www.club-hd.com  >>  Inglés DTS 5.1
Language                                 : English
Default                                  : No
Forced                                   : No

Text
ID                                       : 5
Format                                   : UTF-8
Codec ID                                 : S_TEXT/UTF8
Codec ID/Info                            : UTF-8 Plain Text
Language                                 : Spanish
Default                                  : No
Forced                                   : No




Descarga.jpg



MEGA.jpg

Tenemos TODO el material de Club-HD disponible por Mega, enlaces 100% activos y online hasta la fecha

Llévate tus cuentas Mega PRO III gratis con tu membresía VIP!
Todos los posts vivos con links de Mega.
Todo el material de Club-HD desbloqueado y sin publicidad.

Obtén más información sobre nuestras Membresías VIP



UPLOADED_BANNER.png

Para ver este contenido oculto, debes dar click en el botón"Like", o cualquiera de las otras reacciones:

Me Gusta Me Gusta, Me Encanta Me Encanta, Jaja Jaja, Wow Wow, Triste Triste, Molesto Molesto

 
Última edición por un moderador:
Se agradece el aporte, excelente pelicula
 
esta película nos da otro tipo de perspectiva y otro punto de vista de lo que muchos creen que seria un fin del mundo si es que eso llegara a pasar
 
Volver