The East (2013) m-720p BDRip Dual Latino-Inglés [Subt. Esp] (Thriller. Acción. Intriga)

Maestro Revolver

Well-known member
Miembro del Staff
Administrador
Registro
9 Ago 2012
Mensajes
3.567








TÍTULO ORIGINAL: The East
AÑO: 2013
DURACIÓN: 116 min.
PAÍS: USA
DIRECTOR: Zal Batmanglij
GUIÓN: Brit Marling, Zal Batmanglij
REPARTO: Brit Marling, Alexander Skarsgård, Ellen Page, Toby Kebbell, Shiloh Fernandez, Aldis Hodge. Danielle Macdonald, Hillary Baack, Patricia Clarkson, Jason Ritter, Julia Ormond
PRODUCTORA: Fox Searchlight / Scott Free Productions
GÉNERO: Thriller. Acción. Intriga. Drama | Sectas. Terrorismo. Espionaje
: http://www.imdb.com/title/tt1869716/






Sarah Moss (Brit Marling), empleada brillante de una poderosa compañía, debe cumplir una misión: infiltrarse en un grupo anarquista de ecologistas radicales que están creando problemas a algunas empresas. Lo malo es que el jefe de la banda (Alexander Skarsgård) se enamora de ella.
























La pelicula NO tiene ninguna marca... solo colocamos el nombre de esta web en las capturas






Código:
General
Format                                   : Matroska
Format version                           : Version 2
File size                                : 3.14 GiB
Duration                                 : 1h 56mn
Overall bit rate                         : 3 866 Kbps
Movie name                               : www.club-hd.com
Encoded date                             : UTC 2013-09-06 15:17:52
Writing application                      : mkvmerge v5.7.0 ('The Whirlwind') built on Jul  8 2012 20:08:51
Writing library                          : libebml v1.2.3 + libmatroska v1.3.0

Video
ID                                       : 1
Format                                   : AVC
Format/Info                              : Advanced Video Codec
Format profile                           : High@L4.1
Format settings, CABAC                   : Yes
Format settings, ReFrames                : 6 frames
Codec ID                                 : V_MPEG4/ISO/AVC
Duration                                 : 1h 56mn
Bit rate                                 : 2 701 Kbps
Width                                    : 1 280 pixels
Height                                   : 544 pixels
Display aspect ratio                     : 2.35:1
Frame rate mode                          : Constant
Frame rate                               : 23.976 fps
Color space                              : YUV
Chroma subsampling                       : 4:2:0
Bit depth                                : 8 bits
Scan type                                : Progressive
Bits/(Pixel*Frame)                       : 0.162
Stream size                              : 2.19 GiB (70%)
Title                                    : www.club-hd.com
Writing library                          : x264 core 133 r2334 a3ac64b
Language                                 : English
Default                                  : Yes
Forced                                   : No

Audio #1
ID                                       : 2
Format                                   : AC-3
Format/Info                              : Audio Coding 3
Mode extension                           : CM (complete main)
Format settings, Endianness              : Big
Codec ID                                 : A_AC3
Duration                                 : 1h 56mn
Bit rate mode                            : Constant
Bit rate                                 : 448 Kbps
Channel(s)                               : 6 channels
Channel positions                        : Front: L C R, Side: L R, LFE
Sampling rate                            : 44.1 KHz
Bit depth                                : 16 bits
Compression mode                         : Lossy
Stream size                              : 372 MiB (12%)
Title                                    : www.club-hd.com > Latino
Language                                 : Spanish
Default                                  : Yes
Forced                                   : No

Audio #2
ID                                       : 3
Format                                   : AC-3
Format/Info                              : Audio Coding 3
Mode extension                           : CM (complete main)
Format settings, Endianness              : Big
Codec ID                                 : A_AC3
Duration                                 : 1h 56mn
Bit rate mode                            : Constant
Bit rate                                 : 640 Kbps
Channel(s)                               : 6 channels
Channel positions                        : Front: L C R, Side: L R, LFE
Sampling rate                            : 48.0 KHz
Bit depth                                : 16 bits
Compression mode                         : Lossy
Stream size                              : 532 MiB (17%)
Title                                    : www.club-hd.com > Inglés
Language                                 : English
Default                                  : No
Forced                                   : No

Text
ID                                       : 4
Format                                   : UTF-8
Codec ID                                 : S_TEXT/UTF8
Codec ID/Info                            : UTF-8 Plain Text
Language                                 : Spanish
Default                                  : No
Forced                                   : No

Menu
00:00:00.000                             : en:00:00:00.000
00:02:10.088                             : en:00:02:10.088
00:06:41.568                             : en:00:06:41.568
00:09:34.365                             : en:00:09:34.365
00:12:00.553                             : en:00:12:00.553
00:14:17.315                             : en:00:14:17.315
00:18:11.924                             : en:00:18:11.924
00:22:01.737                             : en:00:22:01.737
00:26:29.254                             : en:00:26:29.254
00:28:41.845                             : en:00:28:41.845
00:31:14.873                             : en:00:31:14.873
00:35:06.479                             : en:00:35:06.479
00:39:20.358                             : en:00:39:20.358
00:45:40.112                             : en:00:45:40.112
00:47:18.753                             : en:00:47:18.753
00:50:39.286                             : en:00:50:39.286
00:52:36.904                             : en:00:52:36.904
00:56:18.458                             : en:00:56:18.458
01:00:59.698                             : en:01:00:59.698
01:05:50.947                             : en:01:05:50.947
01:10:32.603                             : en:01:10:32.603
01:12:03.236                             : en:01:12:03.236
01:14:40.267                             : en:01:14:40.267
01:19:24.218                             : en:01:19:24.218
01:23:11.862                             : en:01:23:11.862
01:27:02.467                             : en:01:27:02.467
01:29:36.580                             : en:01:29:36.580
01:32:01.391                             : en:01:32:01.391
01:35:03.698                             : en:01:35:03.698
01:38:10.885                             : en:01:38:10.885
01:40:42.745                             : en:01:40:42.745
01:43:14.772                             : en:01:43:14.772
01:45:04.590                             : en:01:45:04.590
01:48:00.974                             : en:01:48:00.974
01:49:59.718                             : en:01:49:59.718
01:51:27.222                             : en:01:51:27.222








Enlaces de Mega y Google Drive solo disponibles para Miembros VIP

Compra tu Membresía VIP y apoya a Club-HD!

ATENCIÓN! Tenemos TODO el material de Club-HD disponible por Mega y Google Drive, enlaces 100% activos y online hasta la fecha

Llévate tus cuentas Mega PRO III gratis con tu membresía VIP!
Todos los posts vivos con links de Mega y Google Drive.
Todo el material de Club-HD desbloqueado y sin publicidad.

Click Aquí para más información.


Para ver este contenido oculto, debes dar click en una de las siguientes reacciones : Like Like, Love Love, Haha Haha, Wow Wow, Sad Sad, Angry Angry



 
Última edición por un moderador:

Usuarios Que Están Viendo Este Tema (Total: 1, Miembros: 0, Invitados: 1)

Quién Leyó Este Tema (Total Miembros: 3)

Arriba