The Exorcist: Believer (2023) 1080p BDRip Latino-Inglés [Subt.Esp] (Terror. Poseciones/Exorcismos)

LuchoO

責任者

Moderador
Uploader
Registro
15 Ago 2015
Mensajes
1.887
Reacciones (ptje)
28.337

cover.png


FICHA.TECNICA.png

Captura.JPG

SINOPSIS.PNG



Desde la muerte de su esposa embarazada en un terremoto en Haití hace 12 años, Victor Fielding ha criado solo a su hija Angela. Pero cuando Angela y su amiga Katherine desaparecen en el bosque, solo para regresar tres días después sin recordar lo que les sucedió, se desencadena una cadena de eventos que obligarán a Victor a confrontar el mal y, en su terror y desesperación, busca a la única persona viva que ha presenciado algo así antes: Chris MacNeil. Secuela del film de 1973.

4.8



TRAILER.PNG



CAPTURAS.PNG


teb.0001.jpeg


teb.0002.jpeg


teb.0003.jpeg


teb.0004.jpeg



MEDIAINFO.PNG

Format : Matroska
Format version : Version 4
File size : 11.6 GiB
Duration : 1 h 51 min
Overall bit rate : 15.0 Mb/s
Frame rate : 23.976 FPS
Encoded date : 2023-12-13 18:04:41 UTC
Writing application : mkvmerge v77.0 ('Elemental') 64-bit
Writing library : libebml v1.4.4 + libmatroska v1.7.1

Video
ID : 1
Format : AVC
Format/Info : Advanced Video Codec
Format profile : [email protected]
Format settings : CABAC / 4 Ref Frames
Format settings, CABAC : Yes
Format settings, Reference frames : 4 frames
Codec ID : V_MPEG4/ISO/AVC
Duration : 1 h 51 min
Bit rate : 13.3 Mb/s
Width : 1 920 pixels
Height : 1 040 pixels
Display aspect ratio : 1.85:1
Frame rate mode : Constant
Frame rate : 23.976 (24000/1001) FPS
Color space : YUV
Chroma subsampling : 4:2:0
Bit depth : 8 bits
Scan type : Progressive
Bits/(Pixel*Frame) : 0.277
Stream size : 10.3 GiB (88%)
Writing library : x264 core 164 r3172 c1c9931
Encoding settings : cabac=1 / ref=4 / deblock=1:-3:-3 / analyse=0x3:0x133 / me=umh / subme=9 / psy=1 / psy_rd=1.00:0.00 / mixed_ref=1 / me_range=16 / chroma_me=1 / trellis=2 / 8x8dct=1 / cqm=0 / deadzone=21,11 / fast_pskip=0 / chroma_qp_offset=-2 / threads=32 / lookahead_threads=2 / sliced_threads=0 / nr=0 / decimate=1 / interlaced=0 / bluray_compat=0 / constrained_intra=0 / bframes=3 / b_pyramid=2 / b_adapt=2 / b_bias=0 / direct=3 / weightb=1 / open_gop=0 / weightp=2 / keyint=250 / keyint_min=23 / scenecut=40 / intra_refresh=0 / rc_lookahead=60 / rc=crf / mbtree=1 / crf=16.0 / qcomp=0.60 / qpmin=0 / qpmax=69 / qpstep=4 / ip_ratio=1.40 / aq=1:1.00
Language : English
Default : Yes
Forced : No

Audio #1
ID : 2
Format : E-AC-3
Format/Info : Enhanced AC-3
Commercial name : Dolby Digital Plus
Format profile : Blu-ray Disc
Format settings : Dolby Surround EX
Codec ID : A_EAC3
Duration : 1 h 51 min
Bit rate mode : Constant
Bit rate : 768 kb/s
Channel(s) : 8 channels
Channel layout : L R C LFE Ls Rs Lb Rb
Sampling rate : 48.0 kHz
Frame rate : 31.250 FPS (1536 SPF)
Compression mode : Lossy
Stream size : 610 MiB (5%)
Language : Spanish
Service kind : Complete Main
Default : Yes
Forced : No

Audio #2
ID : 3
Format : AC-3
Format/Info : Audio Coding 3
Commercial name : Dolby Digital
Format settings : Dolby Surround EX
Codec ID : A_AC3
Duration : 1 h 51 min
Bit rate mode : Constant
Bit rate : 448 kb/s
Channel(s) : 6 channels
Channel layout : L R C LFE Ls Rs
Sampling rate : 48.0 kHz
Frame rate : 31.250 FPS (1536 SPF)
Compression mode : Lossy
Stream size : 356 MiB (3%)
Language : Spanish
Service kind : Complete Main
Default : Yes
Forced : No

Audio #3
ID : 4
ID in the original source medium : 4352 (0x1100)
Format : AC-3
Format/Info : Audio Coding 3
Commercial name : Dolby Digital
Codec ID : A_AC3
Duration : 1 h 51 min
Bit rate mode : Constant
Bit rate : 448 kb/s
Channel(s) : 6 channels
Channel layout : L R C LFE Ls Rs
Sampling rate : 48.0 kHz
Frame rate : 31.250 FPS (1536 SPF)
Compression mode : Lossy
Stream size : 356 MiB (3%)
Language : English
Service kind : Complete Main
Default : No
Forced : No
Original source medium : Blu-ray

Text #1
ID : 5
Format : PGS
Muxing mode : zlib
Codec ID : S_HDMV/PGS
Codec ID/Info : Picture based subtitle format used on BDs/HD-DVDs
Duration : 1 h 43 min
Bit rate : 268 b/s
Frame rate : 0.004 FPS
Count of elements : 24
Stream size : 203 KiB (0%)
Title : Forced
Language : Spanish
Default : Yes
Forced : Yes

Text #2
ID : 6
Format : PGS
Muxing mode : zlib
Codec ID : S_HDMV/PGS
Codec ID/Info : Picture based subtitle format used on BDs/HD-DVDs
Duration : 1 h 49 min
Bit rate : 37.4 kb/s
Frame rate : 0.418 FPS
Count of elements : 2752
Stream size : 29.4 MiB (0%)
Language : Spanish
Default : No
Forced : No

Text #3
ID : 7
ID in the original source medium : 4608 (0x1200)
Format : PGS
Muxing mode : zlib
Codec ID : S_HDMV/PGS
Codec ID/Info : Picture based subtitle format used on BDs/HD-DVDs
Duration : 1 h 41 min
Bit rate : 50.3 kb/s
Frame rate : 0.526 FPS
Count of elements : 3212
Stream size : 36.6 MiB (0%)
Language : English
Default : No
Forced : No
Original source medium : Blu-ray

Text #4
ID : 8
ID in the original source medium : 4610 (0x1202)
Format : PGS
Muxing mode : zlib
Codec ID : S_HDMV/PGS
Codec ID/Info : Picture based subtitle format used on BDs/HD-DVDs
Duration : 1 h 49 min
Bit rate : 37.2 kb/s
Frame rate : 0.412 FPS
Count of elements : 2714
Stream size : 29.2 MiB (0%)
Language : French
Default : No
Forced : No
Original source medium : Blu-ray

Text #5
ID : 9
ID in the original source medium : 4612 (0x1204)
Format : PGS
Muxing mode : zlib
Codec ID : S_HDMV/PGS
Codec ID/Info : Picture based subtitle format used on BDs/HD-DVDs
Duration : 1 h 43 min
Bit rate : 640 b/s
Frame rate : 0.010 FPS
Count of elements : 62
Stream size : 486 KiB (0%)
Language : French
Default : No
Forced : No
Original source medium : Blu-ray

Menu
00:00:00.000 : en:Chapter 01
00:07:25.945 : en:Chapter 02
00:13:37.525 : en:Chapter 03
00:21:01.885 : en:Chapter 04
00:28:31.876 : en:Chapter 05
00:34:27.732 : en:Chapter 06
00:39:32.244 : en:Chapter 07
00:44:51.313 : en:Chapter 08
00:48:41.627 : en:Chapter 09
00:52:13.088 : en:Chapter 10
00:57:32.073 : en:Chapter 11
01:00:34.005 : en:Chapter 12
01:06:50.339 : en:Chapter 13
01:10:09.872 : en:Chapter 14
01:17:28.560 : en:Chapter 15
01:23:01.101 : en:Chapter 16
01:27:14.896 : en:Chapter 17
01:34:22.031 : en:Chapter 18
01:40:10.421 : en:Chapter 19
01:42:53.500 : en:Chapter 20


DESCARGA.PNG





⭐ 1 LINK MKV VIP ⭐

Mega.png

Tenemos TODO el material de Club-HD disponible por Mega, enlaces 100% activos y online hasta la fecha

Llévate tus cuentas Mega PRO III gratis con tu membresía VIP!
Todos los posts vivos con links de Mega.
Todo el material de Club-HD desbloqueado y sin publicidad.

Obtén más información sobre nuestras Membresías VIP

LINKS PREMIUM

Nitroflare.png

Para ver este contenido oculto, debes dar click en el botón"Like", o cualquiera de las otras reacciones:

Me Gusta Me Gusta, Me Encanta Me Encanta, Jaja Jaja, Wow Wow, Triste Triste, Molesto Molesto

LINKS FREE PÚBLICOS

Fireload.png


¡Click aquí para descargar desde Fireload!


1cloudfile.png


¡Click aquí para descargar desde 1cloudfile!


 
Volver