The Expendables 2 (2012) 1080p BDRip Dual Latino-Inglés [Subt. Esp-Ing] (Acción)

Maestro Revolver

Well-known member
Miembro del Staff
Administrador
Registro
9 Ago 2012
Mensajes
3.569
Reacciones
59.480
Puntos
113

Reputation:









TÍTULO ORIGINAL: The Expendables 2
AÑO: 2012
DURACIÓN: 102 min.
PAÍS: USA
DIRECTOR: Simon West
GUIÓN: Richard Wenk, Sylvester Stallone (Historia: Ken Kaufman, David Agosto, Richard Wenk)
REPARTO: Sylvester Stallone, Jason Statham, Dolph Lundgren, Terry Crews, Randy Couture, Yu Nan, Jean Claude Van Damme, Bruce Willis, Arnold Schwarzenegger, Chuck Norris, Jet Li, Liam Hemsworth, Scott Adkins, Charisma Carpenter, Amanda Ooms
PRODUCTORA: Millennium Films / Nu Image Films
GÉNERO: Acción | Secuela
http://www.imdb.com/title/tt1764651/





Los Mercenarios han vuelto, y esta vez es personal... Barney Ross (Sylvester Stallone), Lee Christmas (Jason Statham), Yin Yang (Jet Li), Gunner Jensen (Dolph Lundgren), Toll Road (Randy Couture) y Hale Caesar (Terry Crews), con su miembro más reciente, Billy (Liam Hemsworth), se vuelven a reunir cuando Mr. Church (Bruce Willis) les encarga un trabajo en apariencia sencillo y muy lucrativo. Sin embargo, las cosas se tuercen cuando un peligroso terrorista llamado Villain (Jean-Claude Van Damme) les tiende una emboscada, lo que les impulsa a buscar venganza. Así es como van sembrando a su paso la destrucción y el caos entre sus enemigos hasta que se encuentran con una amenaza inesperada: cinco toneladas de plutonio apto para uso militar, una cantidad más que suficiente para cambiar el equilibrio de poder en el mundo.
























La pelicula NO tiene ninguna marca... solo colocamos el nombre de esta web en las capturas






Código:
GeneralDual.mkv
Format                           : Matroska
Format version                   : Version 2
File size                        : 13.2 GiB
Duration                         : 1h 42mn
Overall bit rate                 : 18.4 Mbps
Movie name                       : www.club-hd.com
Encoded date                     : UTC 2012-11-09 23:38:14
Writing application              : mkvmerge v5.7.0 ('The Whirlwind') built on Jul  8 2012 20:08:51
Writing library                  : libebml v1.2.3 + libmatroska v1.3.0

Video
ID                               : 1
Format                           : AVC
Format/Info                      : Advanced Video Codec
Format profile                   : High@L4.1
Format settings, CABAC           : Yes
Format settings, ReFrames        : 5 frames
Codec ID                         : V_MPEG4/ISO/AVC
Duration                         : 1h 42mn
Bit rate                         : 15.8 Mbps
Width                            : 1 920 pixels
Height                           : 800 pixels
Display aspect ratio             : 2.40:1
Frame rate                       : 23.976 fps
Color space                      : YUV
Chroma subsampling               : 4:2:0
Bit depth                        : 8 bits
Scan type                        : Progressive
Bits/(Pixel*Frame)               : 0.429
Stream size                      : 11.1 GiB (84%)
Title                            : www.club-hd.com
Writing library                  : x264 core 128 r2216+688+33 06dac27 tMod+MixAQ [8-bit@4:2:0 X86_64]
Language                         : English
Default                          : Yes
Forced                           : No

Audio #1
ID                               : 2
Format                           : AC-3
Format/Info                      : Audio Coding 3
Mode extension                   : CM (complete main)
Codec ID                         : A_AC3
Duration                         : 1h 42mn
Bit rate mode                    : Constant
Bit rate                         : 448 Kbps
Channel(s)                       : 6 channels
Channel positions                : Front: L C R, Side: L R, LFE
Sampling rate                    : 48.0 KHz
Bit depth                        : 16 bits
Compression mode                 : Lossy
Delay relative to video          : 23s 300ms
Stream size                      : 329 MiB (2%)
Title                            : www.club-hd.com  >>  Latino AC3 5.1
Language                         : Spanish
Default                          : Yes
Forced                           : No

Audio #2
ID                               : 3
Format                           : AC-3
Format/Info                      : Audio Coding 3
Mode extension                   : CM (complete main)
Codec ID                         : A_AC3
Duration                         : 1h 42mn
Bit rate mode                    : Constant
Bit rate                         : 640 Kbps
Channel(s)                       : 6 channels
Channel positions                : Front: L C R, Side: L R, LFE
Sampling rate                    : 48.0 KHz
Bit depth                        : 16 bits
Compression mode                 : Lossy
Stream size                      : 470 MiB (3%)
Title                            : www.club-hd.com  >>  Inglés AC3 5.1
Language                         : English
Default                          : No
Forced                           : No

Audio #3
ID                               : 4
Format                           : DTS
Format/Info                      : Digital Theater Systems
Codec ID                         : A_DTS
Duration                         : 1h 42mn
Bit rate mode                    : Constant
Bit rate                         : 1 510 Kbps
Channel(s)                       : 6 channels
Channel positions                : Front: L C R, Side: L R, LFE
Sampling rate                    : 48.0 KHz
Bit depth                        : 24 bits
Compression mode                 : Lossy
Stream size                      : 1.08 GiB (8%)
Title                            : www.club-hd.com  >>  Inglés DTS 5.1
Language                         : English
Default                          : No
Forced                           : No

Text #1
ID                               : 5
Format                           : UTF-8
Codec ID                         : S_TEXT/UTF8
Codec ID/Info                    : UTF-8 Plain Text
Language                         : Spanish
Default                          : No
Forced                           : No

Text #2
ID                               : 6
Format                           : UTF-8
Codec ID                         : S_TEXT/UTF8
Codec ID/Info                    : UTF-8 Plain Text
Language                         : English
Default                          : No
Forced                           : No

Menu
00:00:00.000                     : en:00:00:00.000
00:10:04.229                     : en:00:10:04.229
00:18:06.210                     : en:00:18:06.210
00:24:55.661                     : en:00:24:55.661
00:28:44.014                     : en:00:28:44.014
00:31:32.641                     : en:00:31:32.641
00:39:11.683                     : en:00:39:11.683
00:48:54.390                     : en:00:48:54.390
00:54:35.397                     : en:00:54:35.397
00:59:25.103                     : en:00:59:25.103
01:04:30.909                     : en:01:04:30.909
01:07:15.239                     : en:01:07:15.239
01:13:43.252                     : en:01:13:43.252
01:20:18.522                     : en:01:20:18.522
01:28:27.844                     : en:01:28:27.844
01:31:25.271                     : en:01:31:25.271











Enlaces de Mega y Fireload solo disponibles para Miembros VIP

Compra tu Membresía VIP y apoya a Club-HD!

ATENCIÓN! Tenemos TODO el material de Club-HD disponible por Mega y Fireload, enlaces 100% activos y online hasta la fecha

Llévate tus cuentas Mega PRO II gratis con tu membresía VIP!
Todos los posts vivos con links de Mega y Fireload.
Todo el material de Club-HD desbloqueado y sin publicidad.

Click Aquí para más información.



Enlaces de Mega y Fireload solo disponibles para Miembros VIP

Compra tu Membresía VIP y apoya a Club-HD!

ATENCIÓN! Tenemos TODO el material de Club-HD disponible por Mega y Fireload, enlaces 100% activos y online hasta la fecha

Llévate tus cuentas Mega PRO II gratis con tu membresía VIP!
Todos los posts vivos con links de Mega y Fireload.
Todo el material de Club-HD desbloqueado y sin publicidad.

Click Aquí para más información.



Enlaces de Mega y Fireload solo disponibles para Miembros VIP

Compra tu Membresía VIP y apoya a Club-HD!

ATENCIÓN! Tenemos TODO el material de Club-HD disponible por Mega y Fireload, enlaces 100% activos y online hasta la fecha

Llévate tus cuentas Mega PRO II gratis con tu membresía VIP!
Todos los posts vivos con links de Mega y Fireload.
Todo el material de Club-HD desbloqueado y sin publicidad.

Click Aquí para más información.



Para ver este contenido oculto, debes dar click en una de las siguientes reacciones : Like Like, Love Love, Haha Haha, Wow Wow, Sad Sad, Angry Angry
 
Última edición:

Maestro Revolver

Well-known member
Miembro del Staff
Administrador
Registro
9 Ago 2012
Mensajes
3.569
Reacciones
59.480
Puntos
113

Reputation:

Audio Latino ac3 e Ingles DTS!!
 

Mate78

Ladron de mi cerebro
Miembro del Staff
Súper Moderador
Registro
27 Ago 2012
Mensajes
1.237
Reacciones
924
Puntos
113

Reputation:

estupendoooooo , gracias bestia !!!!!
 

Nosferatu

Well-known member
Súper Moderador
Registro
31 Ago 2012
Mensajes
2.275
Reacciones
1.362
Puntos
113
Edad
44
Ubicación
Welcome to Hell!!

Reputation:

Excelente maestro, en 1080p y dts, fuera de serie.

GRACIAS MISTER R21!
 

Joker

Well-known member
Miembro del Staff
Súper Moderador
Registro
27 Ago 2012
Mensajes
1.349
Reacciones
3.775
Puntos
113
Ubicación
Arkham Asylum

Reputation:

Desc_g_

A ver que tal... Eres grande Revolver, mis respetos =P

Gracias!

Saludos :D
 

Sasukefall

New member
Registro
28 Sep 2012
Mensajes
751
Reacciones
42
Puntos
0
Ubicación
Portuguesa

Reputation:

esperando 720p jeje ojala pongas calidad del audio en en 720p como uno quemaria una peli de +8gb? en un bd 25 gb? no pregunto la quisiera :( tener asi
 

Usuarios Que Están Viendo Este Tema (Total: 1, Miembros: 0, Invitados: 1)

Arriba