The Family (2013) 720p RC BDRip Audio Inglés [Subt. Esp] (Acción)

Maestro Revolver

Well-known member
Miembro del Staff
Administrador
Registro
9 Ago 2012
Mensajes
3.567








TÍTULO ORIGINAL: The Family (Malavita)
AÑO: 2013
DURACIÓN: 111 min.
PAÍS: USA
DIRECTOR: Luc Besson
GUIÓN: Luc Besson, Michael Caleo (Libro: Tonino Benacquista)
REPARTO: Robert De Niro, Michelle Pfeiffer, Tommy Lee Jones, Dianna Agron, Domenick Lombardozzi, Vincent Pastore
PRODUCTORA: Coproducción USA-Francia; Relativity Media / EuropaCorp
GÉNERO: Thriller. Comedia | Comedia negra. Crimen. Mafia
: http://www.imdb.com/title/tt2404311/






Una conocida familia mafiosa americana se traslada a la región francesa de Normandia bajo un programa de protección de testigos del FBI. Aunque hacen lo posible para adaptarse a su nuevo estilo de vida, enseguida se verán obligados a utilizar los viejos métodos para solucionar los problemas familiares. Adaptación de 'Badfellas', novela de Tonino Benacquista.
























La pelicula NO tiene ninguna marca... solo colocamos el nombre de esta web en las capturas






Código:
General
Format                                   : Matroska
Format version                           : Version 2
File size                                : 4.37 GiB
Duration                                 : 1h 46mn
Overall bit rate                         : 5 850 Kbps
Movie name                               : www.club-hd.com
Encoded date                             : UTC 2013-12-03 21:33:53
Writing application                      : mkvmerge v5.7.0 ('The Whirlwind') built on Jul  8 2012 20:08:51
Writing library                          : libebml v1.2.3 + libmatroska v1.3.0

Video
ID                                       : 1
Format                                   : AVC
Format/Info                              : Advanced Video Codec
Format profile                           : High@L3.1
Format settings, CABAC                   : Yes
Format settings, ReFrames                : 5 frames
Codec ID                                 : V_MPEG4/ISO/AVC
Duration                                 : 1h 46mn
Bit rate                                 : 5 349 Kbps
Width                                    : 1 280 pixels
Height                                   : 536 pixels
Display aspect ratio                     : 2.40:1
Frame rate mode                          : Constant
Frame rate                               : 25.000 fps
Color space                              : YUV
Chroma subsampling                       : 4:2:0
Bit depth                                : 8 bits
Scan type                                : Progressive
Bits/(Pixel*Frame)                       : 0.312
Stream size                              : 4.00 GiB (91%)
Title                                    : www.club-hd.com
Language                                 : English
Default                                  : Yes
Forced                                   : No

Audio
ID                                       : 2
Format                                   : AC-3
Format/Info                              : Audio Coding 3
Mode extension                           : CM (complete main)
Format settings, Endianness              : Big
Codec ID                                 : A_AC3
Duration                                 : 1h 46mn
Bit rate mode                            : Constant
Bit rate                                 : 384 Kbps
Channel(s)                               : 6 channels
Channel positions                        : Front: L C R, Side: L R, LFE
Sampling rate                            : 48.0 KHz
Bit depth                                : 16 bits
Compression mode                         : Lossy
Stream size                              : 294 MiB (7%)
Title                                    : www.club-hd.com
Language                                 : English
Default                                  : Yes
Forced                                   : No

Text
ID                                       : 3
Format                                   : UTF-8
Codec ID                                 : S_TEXT/UTF8
Codec ID/Info                            : UTF-8 Plain Text
Title                                    : www.club-hd.com
Language                                 : Spanish
Default                                  : Yes
Forced                                   : No








Enlaces de Mega y Google Drive solo disponibles para Miembros VIP

Compra tu Membresía VIP y apoya a Club-HD!

ATENCIÓN! Tenemos TODO el material de Club-HD disponible por Mega y Google Drive, enlaces 100% activos y online hasta la fecha

Llévate tus cuentas Mega PRO III gratis con tu membresía VIP!
Todos los posts vivos con links de Mega y Google Drive.
Todo el material de Club-HD desbloqueado y sin publicidad.

Click Aquí para más información.



Para ver este contenido oculto, debes dar click en una de las siguientes reacciones : Like Like, Love Love, Haha Haha, Wow Wow, Sad Sad, Angry Angry

 
Última edición por un moderador:

HemoAr

Dohko de Libra
Administrador
Uploader
Miembro VIP
Registro
9 Mar 2013
Mensajes
10.597
Ubicación
Rozan
Pnsand0 RC?? Bueno solo el master Revolver sabe l0l. Gracias Master :LXR:
 

Sonyphoenix

Well-known member
Miembro del Staff
Súper Moderador
Miembro VIP
Registro
5 Nov 2012
Mensajes
1.753
Ubicación
EN EL INFIERNO
Actores de renombre + familia loca + mafia = excelente Tb_up3 Que buen aporte master!!! agregando a la videoteca :bsrs:
 

Usuarios Que Están Viendo Este Tema (Total: 1, Miembros: 0, Invitados: 1)

Quién Leyó Este Tema (Total Miembros: 2)

Arriba