The Fourth Kind (2009) m-1080p Dual Latino-Inglés [Subt. Esp] (Ciencia ficción. Terror)

Maestro Revolver

Well-known member
Miembro del Staff
Administrador
Registro
9 Ago 2012
Mensajes
3.569
Reacciones
59.350
Puntos
113

Reputation:








TÍTULO ORIGINAL: The Fourth Kind (The 4th Kind)
AÑO: 2009
DURACIÓN: 98 min.
PAÍS: USA
DIRECTOR: Olatunde Osunsanmi
GUIÓN: Olatunde Osunsanmi
REPARTO: Milla Jovovich, Elias Koteas, Will Patton, Hakeem Kae-Kazim, Corey Johnson, Enzo Cilenti, Daphne Alexander, Alisha Seaton, Tyne Rafaeli
PRODUCTORA: Universal Pictures / Gold Circle Films / Dead Crow Productions / Focus Films
GÉNERO: Ciencia ficción. Terror | Sobrenatural. Falso documental
: http://www.imdb.com/title/tt1220198/






Thriller sobrenatural ambientado en Alaska en el que una mujer investiga una serie de misteriosas desapariciones ocurridas en el lugar durante los últimos 40 años. A finales del año 2000, los pacientes de la terapeuta Abbey Tyler, bajo hipnosis, reflejaron comportamientos que sugerían encuentros con seres no humanos. Antes de dormir, todos ellos aseguraban haber visto un búho que les observaba desde fuera de la ventana. Y despertaban completamente paralizados, escuchando ruidos terroríficos que provenían de fuera de la habitación. Los recuerdos posteriores se sumían en la oscuridad. La doctora prosiguió con sus investigaciones, descubriendo que la desaparición de personas y sucesos extraños en la región se remontaba a los años 60...
























La pelicula NO tiene ninguna marca... solo colocamos el nombre de esta web en las capturas






Código:
General
Format                                   : Matroska
Format version                           : Version 2
File size                                : 3.27 GiB
Duration                                 : 1h 38mn
Overall bit rate                         : 4 772 Kbps
Movie name                               : www.club-hd.com
Encoded date                             : UTC 2013-04-05 02:30:21
Writing application                      : mkvmerge v5.7.0 ('The Whirlwind') built on Jul  8 2012 20:08:51
Writing library                          : libebml v1.2.3 + libmatroska v1.3.0

Video
ID                                       : 1
Format                                   : AVC
Format/Info                              : Advanced Video Codec
Format profile                           : Main@L4.0
Format settings, CABAC                   : Yes
Format settings, ReFrames                : 4 frames
Codec ID                                 : V_MPEG4/ISO/AVC
Duration                                 : 1h 38mn
Bit rate                                 : 3 397 Kbps
Width                                    : 1 920 pixels
Height                                   : 816 pixels
Display aspect ratio                     : 2.35:1
Frame rate mode                          : Constant
Frame rate                               : 23.976 fps
Color space                              : YUV
Chroma subsampling                       : 4:2:0
Bit depth                                : 8 bits
Scan type                                : Progressive
Bits/(Pixel*Frame)                       : 0.090
Stream size                              : 2.33 GiB (71%)
Title                                    : www.club-hd.com
Writing library                          : x264 core 112
Language                                 : English
Default                                  : Yes
Forced                                   : No
Color primaries                          : BT.709
Transfer characteristics                 : BT.709
Matrix coefficients                      : BT.709

Audio #1
ID                                       : 2
Format                                   : AC-3
Format/Info                              : Audio Coding 3
Mode extension                           : CM (complete main)
Format settings, Endianness              : Big
Codec ID                                 : A_AC3
Duration                                 : 1h 38mn
Bit rate mode                            : Constant
Bit rate                                 : 640 Kbps
Channel(s)                               : 6 channels
Channel positions                        : Front: L C R, Side: L R, LFE
Sampling rate                            : 48.0 KHz
Bit depth                                : 16 bits
Compression mode                         : Lossy
Stream size                              : 449 MiB (13%)
Title                                    : www.club-hd.com  >>  Latino
Language                                 : Spanish
Default                                  : Yes
Forced                                   : No

Audio #2
ID                                       : 3
Format                                   : AC-3
Format/Info                              : Audio Coding 3
Mode extension                           : CM (complete main)
Format settings, Endianness              : Big
Codec ID                                 : A_AC3
Duration                                 : 1h 38mn
Bit rate mode                            : Constant
Bit rate                                 : 640 Kbps
Channel(s)                               : 6 channels
Channel positions                        : Front: L C R, Side: L R, LFE
Sampling rate                            : 48.0 KHz
Bit depth                                : 16 bits
Compression mode                         : Lossy
Stream size                              : 449 MiB (13%)
Title                                    : www.club-hd.com  >>  Inglés
Language                                 : English
Default                                  : No
Forced                                   : No

Text
ID                                       : 4
Format                                   : UTF-8
Codec ID                                 : S_TEXT/UTF8
Codec ID/Info                            : UTF-8 Plain Text
Language                                 : Spanish
Default                                  : No
Forced                                   : No

Menu
00:00:00.000                             : en:Chapter 1
00:01:42.268                             : en:Chapter 2
00:08:16.746                             : en:Chapter 3
00:13:53.249                             : en:Chapter 4
00:19:54.818                             : en:Chapter 5
00:24:25.338                             : en:Chapter 6
00:28:33.002                             : en:Chapter 7
00:33:37.515                             : en:Chapter 8
00:36:56.797                             : en:Chapter 9
00:43:03.539                             : en:Chapter 10
00:47:29.721                             : en:Chapter 11
00:52:42.617                             : en:Chapter 12
00:56:45.485                             : en:Chapter 13
01:01:00.823                             : en:Chapter 14
01:05:16.495                             : en:Chapter 15
01:09:48.392                             : en:Chapter 16
01:14:15.284                             : en:Chapter 17
01:20:38.416                             : en:Chapter 18
01:27:30.578                             : en:Chapter 19
01:32:21.410                             : en:Chapter 20








Enlaces de Mega y Fireload solo disponibles para Miembros VIP

Compra tu Membresía VIP y apoya a Club-HD!

ATENCIÓN! Tenemos TODO el material de Club-HD disponible por Mega y Fireload, enlaces 100% activos y online hasta la fecha

Llévate tus cuentas Mega PRO II gratis con tu membresía VIP!
Todos los posts vivos con links de Mega y Fireload.
Todo el material de Club-HD desbloqueado y sin publicidad.

Click Aquí para más información.


Para ver este contenido oculto, debes dar click en una de las siguientes reacciones : Like Like, Love Love, Haha Haha, Wow Wow, Sad Sad, Angry Angry


Para ver este contenido oculto, debes dar click en una de las siguientes reacciones : Like Like, Love Love, Haha Haha, Wow Wow, Sad Sad, Angry Angry
 
Última edición por un moderador:

zacygal

Well-known member
Registro
3 Sep 2012
Mensajes
1.515
Reacciones
1.536
Puntos
113
Edad
49

Reputation:

Es Jueves de Terror --- Grax maestro
 

Claudia

New member
Súper Moderador
Registro
28 Ago 2012
Mensajes
2.288
Reacciones
2.928
Puntos
0
Edad
48
Ubicación
EN MI MUNDO REAL...

Reputation:

excelente movie...NO SE LA PIERDAN, MUY RECOMENDABLE!!!!!!!!MUCHAS GRACIAS!!!!!!!!!Pl4yb0y
 

edward1080

Well-known member
Registro
23 Nov 2012
Mensajes
1.013
Reacciones
137
Puntos
63
Edad
34

Reputation:

Genial esperada por muchos master Revolver!!... agregando un poco de terror para este fin de semana!...muchas gracias :dplgar:
 

temofox

Active member
Registro
16 Feb 2013
Mensajes
582
Reacciones
30
Puntos
28

Reputation:

Se ve chida la pelicula, vamos a ver si no me da miedillo jajajaja... Gracias!
 

Pedrum

The Buckminster
Registro
28 Ago 2012
Mensajes
1.092
Reacciones
1.546
Puntos
113
Ubicación
Bahia Blanca

Reputation:

Excelente pelicula Capo...demas esta decir que se agradece!!!

Un abrazo! victory
 

Israel The IPM

Well-known member
Registro
31 Ago 2012
Mensajes
1.006
Reacciones
63
Puntos
48
Edad
35

Reputation:

Gracias Men Excelente Aporte Lo Estaba Esperando :dplgar: Desc_g_ :)
 

MorlanGilmour

Active member
Registro
11 Sep 2012
Mensajes
472
Reacciones
99
Puntos
28
Ubicación
Mexico

Reputation:

a mi en lo personal todo lo que es de aliens abducciones y derivados me aterra por alguna extraña razón y cuando vi esta película por primera ves quede encantado y aterrado al mismo tiempo muchas gracias R21 es una muy buena película para este fin de semana
 

Usuarios Que Están Viendo Este Tema (Total: 1, Miembros: 0, Invitados: 1)

Arriba