The Godfather : Part II (1974) 1080p BDRemux Dual Latino-Inglés (Thriller. Acción)

Bebesaurio

Novio de Vizard
Miembro del Staff
Moderador
Uploader
Registro
12 Mar 2018
Mensajes
929
Reacciones
27.400
Puntos
93
Edad
23

Reputation:




Sinopsis

Continuación de la historia de los Corleone por medio de dos historias paralelas: la elección de Michael como jefe de los negocios familiares y los orígenes del patriarca, Don Vito Corleone, primero en su Sicilia natal y posteriormente en Estados Unidos, donde, empezando desde abajo, llegó a ser un poderosísimo jefe de la mafia de Nueva York


MEDIAINFO
Código:
General
Unique ID                                : 29719567267072273787831926009811997628 (0x165BC7CBCB13C10A55A99CAF574C93BC)
Format                                   : Matroska
Format version                           : Version 4
File size                                : 39,1 GiB
Duration                                 : 3 h 22 min
Overall bit rate mode                    : Variable
Overall bit rate                         : 27,7 Mb/s
Movie name                               : The Godfather, Part II
Encoded date                             : UTC 2021-11-11 14:53:21
Writing application                      : mkvmerge v59.0.0 ('Shining Star') 64-bit
Writing library                          : libebml v1.4.2 + libmatroska v1.6.4

Vídeo
ID                                       : 1
ID in the original source medium         : 4113 (0x1011)
Format                                   : AVC
Format/Info                              : Advanced Video Codec
Format profile                           : High@L4.1
Format settings                          : CABAC / 4 Ref Frames
Format settings, CABAC                   : Sí
Format settings, Reference frames        : 4 fotogramas
Codec ID                                 : V_MPEG4/ISO/AVC
Duration                                 : 3 h 22 min
Bit rate mode                            : Variable
Bit rate                                 : 22,6 Mb/s
Maximum bit rate                         : 38,0 Mb/s
Width                                    : 1 920 píxeles
Height                                   : 1 080 píxeles
Display aspect ratio                     : 16:9
Frame rate mode                          : Constante
Frame rate                               : 23,976 (24000/1001) FPS
Color space                              : YUV
Chroma subsampling                       : 4:2:0
Bit depth                                : 8 bits
Scan type                                : Progresivo
Bits/(Pixel*Frame)                       : 0.455
Stream size                              : 32,0 GiB (82%)
Title                                    : AVC Video  22643 kbps 1080p / 23.976 fps / 16:9 / High Profile 4.1
Language                                 : Inglés
Default                                  : No
Forced                                   : No
Color range                              : Limited
Color primaries                          : BT.709
Transfer characteristics                 : BT.709
Matrix coefficients                      : BT.709
Medio fuente original                    : Blu-ray

Audio #1
ID                                       : 2
ID in the original source medium         : 4355 (0x1103)
Format                                   : AC-3
Format/Info                              : Audio Coding 3
Commercial name                          : Dolby Digital
Codec ID                                 : A_AC3
Duration                                 : 3 h 22 min
Bit rate mode                            : Constante
Bit rate                                 : 640 kb/s
Channel(s)                               : 6 canales
Channel layout                           : L R C LFE Ls Rs
Sampling rate                            : 48,0 kHz
Frame rate                               : 31,250 FPS (1536 SPF)
Compression mode                         : Con pérdida
Stream size                              : 925 MiB (2%)
Title                                    : Dolby Digital Audio  Spanish 640 kbps  5.1 / 48 kHz / 640 kbps / DN -4dB
Language                                 : Español
Service kind                             : Complete Main
Default                                  : Sí
Forced                                   : Sí
Medio fuente original                    : Blu-ray

Audio #2
ID                                       : 3
ID in the original source medium         : 4352 (0x1100)
Format                                   : MLP FBA
Format/Info                              : Meridian Lossless Packing FBA
Commercial name                          : Dolby TrueHD
Codec ID                                 : A_TRUEHD
Duration                                 : 3 h 22 min
Bit rate mode                            : Variable
Bit rate                                 : 3 592 kb/s
Maximum bit rate                         : 5 643 kb/s
Channel(s)                               : 6 canales
Channel layout                           : L R C LFE Ls Rs
Sampling rate                            : 48,0 kHz
Frame rate                               : 1 200,000 FPS (40 SPF)
Bit depth                                : 24 bits
Compression mode                         : Sin pérdida
Stream size                              : 5,07 GiB (13%)
Title                                    : Dolby TrueHD Audio English  3592 kbps  5.1 / 48 kHz / 3592 kbps
Language                                 : Inglés
Default                                  : Sí
Forced                                   : No
Medio fuente original                    : Blu-ray

Audio #3
ID                                       : 4
ID in the original source medium         : 4352 (0x1100)
Format                                   : AC-3
Format/Info                              : Audio Coding 3
Commercial name                          : Dolby Digital
Codec ID                                 : A_AC3
Duration                                 : 3 h 22 min
Bit rate mode                            : Constante
Bit rate                                 : 640 kb/s
Channel(s)                               : 6 canales
Channel layout                           : L R C LFE Ls Rs
Sampling rate                            : 48,0 kHz
Frame rate                               : 31,250 FPS (1536 SPF)
Compression mode                         : Con pérdida
Stream size                              : 925 MiB (2%)
Title                                    : AC3 Embedded: 5.1 / 48 kHz / 640 kbps / DN -4dB
Language                                 : Inglés
Service kind                             : Complete Main
Default                                  : No
Forced                                   : No
Medio fuente original                    : Blu-ray

Texto #1
ID                                       : 5
ID in the original source medium         : 4611 (0x1203)
Format                                   : PGS
Codec ID                                 : S_HDMV/PGS
Codec ID/Info                            : Picture based subtitle format used on BDs/HD-DVDs
Duration                                 : 3 h 14 min
Bit rate                                 : 31,2 kb/s
Count of elements                        : 2892
Stream size                              : 43,4 MiB (0%)
Language                                 : Español
Default                                  : No
Forced                                   : No
Medio fuente original                    : Blu-ray

Texto #2
ID                                       : 6
ID in the original source medium         : 4608 (0x1200)
Format                                   : PGS
Codec ID                                 : S_HDMV/PGS
Codec ID/Info                            : Picture based subtitle format used on BDs/HD-DVDs
Duration                                 : 3 h 13 min
Bit rate                                 : 35,5 kb/s
Count of elements                        : 3004
Stream size                              : 49,1 MiB (0%)
Language                                 : Inglés
Default                                  : No
Forced                                   : No
Medio fuente original                    : Blu-ray

Texto #3
ID                                       : 7
ID in the original source medium         : 4609 (0x1201)
Format                                   : PGS
Codec ID                                 : S_HDMV/PGS
Codec ID/Info                            : Picture based subtitle format used on BDs/HD-DVDs
Duration                                 : 3 h 14 min
Bit rate                                 : 40,9 kb/s
Count of elements                        : 3636
Stream size                              : 57,0 MiB (0%)
Language                                 : Inglés
Default                                  : No
Forced                                   : No
Medio fuente original                    : Blu-ray

Menú
00:00:00.000                             : Chapter 01
00:03:40.428                             : Chapter 02
00:07:29.740                             : Chapter 03
00:12:04.765                             : Chapter 04
00:16:18.185                             : Chapter 05
00:27:38.114                             : Chapter 06
00:34:28.191                             : Chapter 07
00:43:44.705                             : Chapter 08
00:49:32.511                             : Chapter 09
00:59:50.086                             : Chapter 10
01:12:52.034                             : Chapter 11
01:17:13.587                             : Chapter 12
01:26:18.882                             : Chapter 13
01:47:22.227                             : Chapter 14
01:50:16.943                             : Chapter 15
01:55:32.425                             : Chapter 16
02:06:50.686                             : Chapter 17
02:13:12.484                             : Chapter 18
02:20:50.483                             : Chapter 19
02:28:29.692                             : Chapter 20
02:33:35.956                             : Chapter 21
02:37:57.009                             : Chapter 22
02:44:08.505                             : Chapter 23
02:51:08.383                             : Chapter 24
02:56:46.721                             : Chapter 25
03:01:32.882                             : Chapter 26
03:05:20.400                             : Chapter 27
03:07:25.859                             : Chapter 28
03:12:01.510                             : Chapter 29
03:16:56.971                             : Chapter 30


Un agradecimiento super especial para nuestro amigo Ronivara_72, por pasarnos este excelente BDRemux de gran calidad. :aplausos: :reverencia:



CAPTURAS





ENLACES VIP



Enlaces de Mega y Fireload solo disponibles para Miembros VIP

Compra tu Membresía VIP y apoya a Club-HD!

ATENCIÓN! Tenemos TODO el material de Club-HD disponible por Mega y Fireload, enlaces 100% activos y online hasta la fecha

Llévate tus cuentas Mega PRO II gratis con tu membresía VIP!
Todos los posts vivos con links de Mega y Fireload.
Todo el material de Club-HD desbloqueado y sin publicidad.

Click Aquí para más información.
ENLACES FREE



Para ver este contenido oculto, debes dar click en una de las siguientes reacciones : Like Like, Love Love, Haha Haha, Wow Wow, Sad Sad, Angry Angry


Para ver este contenido oculto, debes dar click en una de las siguientes reacciones : Like Like, Love Love, Haha Haha, Wow Wow, Sad Sad, Angry Angry

Para ver este contenido oculto, debes dar click en una de las siguientes reacciones : Like Like, Love Love, Haha Haha, Wow Wow, Sad Sad, Angry Angry
CONTRASEÑA
Código:
www.club-hd.com
 

Crack20

𝙀𝙡 𝙐𝙡𝙩𝙧𝙖 𝙄𝙣𝙨𝙩𝙞𝙣𝙩𝙤
Colaborador
Registro
1 Jul 2015
Mensajes
745
Reacciones
3.499
Puntos
93
Edad
28
Ubicación
惑星ベジータ

Reputation:

Pues... gracias a los 2 por traerla en REMUX, estas cintas son joyas. :aplausos:
 

cripp

Well-known member
Registro
27 Ago 2012
Mensajes
9.683
Reacciones
845
Puntos
113

Reputation:

Gracias por compartir
 

Usuarios Que Están Viendo Este Tema (Total: 1, Miembros: 0, Invitados: 1)

Arriba