The Great Gatsby (2013) 1080p BDRip Dual Latino-Inglés [Subt. Esp] (Drama. Romance)

Maestro Revolver

Well-known member
Miembro del Staff
Administrador
Registro
9 Ago 2012
Mensajes
3.567








TÍTULO ORIGINAL: The Great Gatsby
AÑO: 2013
DURACIÓN: 118 min.
PAÍS: Australia
DIRECTOR: Baz Luhrmann
GUIÓN: Baz Luhrmann, Craig Pearce (Novela: F. Scott Fitzgerald)
REPARTO: Leonardo DiCaprio, Tobey Maguire, Carey Mulligan, Joel Edgerton, Isla Fisher, Elizabeth Debicki, Amitabh Bachchan, Jason Clarke, Adelaide Clemens, Max Cullen, Steve Bisley, Richard Carter, Vince Colosimo, Brendan Maclean, Kate Mulvany, Callan McAuliffe, Jack Thompson
PRODUCTORA: Coproducción Australia-EEUU; Warner Bros. Pictures / Bazmark Films / Red Wagon Productions
GÉNERO: Drama. Romance | Drama romántico. Años 20. 3-D
: http://www.imdb.com/title/tt1343092/






Nueva York, años 20. En la alta sociedad norteamericana, llama la atención la presencia de Jay Gatsby, un hombre misterioso e inmensamente rico, al que todos consideran un advenedizo, lo que no impide que acudan a sus fastuosas fiestas en su gran mansión de Long Island. Gatsby vive obsesionado con la idea de recuperar al amor que dejó escapar años atrás. Para ello se hará amigo de su vecino recién llegado, el joven Nick Carraway.
























La pelicula NO tiene ninguna marca... solo colocamos el nombre de esta web en las capturas






Código:
General
Format                                   : Matroska
Format version                           : Version 2
File size                                : 10.9 GiB
Duration                                 : 2h 22mn
Overall bit rate                         : 10.9 Mbps
Movie name                               : www.club-hd.com
Encoded date                             : UTC 2013-08-10 22:41:43
Writing application                      : mkvmerge v5.7.0 ('The Whirlwind') built on Jul  8 2012 20:08:51
Writing library                          : libebml v1.2.3 + libmatroska v1.3.0

Video
ID                                       : 1
Format                                   : AVC
Format/Info                              : Advanced Video Codec
Format profile                           : High@L4.1
Format settings, CABAC                   : Yes
Format settings, ReFrames                : 5 frames
Codec ID                                 : V_MPEG4/ISO/AVC
Duration                                 : 2h 22mn
Bit rate                                 : 8 400 Kbps
Width                                    : 1 920 pixels
Height                                   : 800 pixels
Display aspect ratio                     : 2.40:1
Frame rate mode                          : Constant
Frame rate                               : 23.976 fps
Color space                              : YUV
Chroma subsampling                       : 4:2:0
Bit depth                                : 8 bits
Scan type                                : Progressive
Bits/(Pixel*Frame)                       : 0.228
Stream size                              : 8.12 GiB (75%)
Title                                    : www.club-hd.com
Writing library                          : x264 core 133 r2334 a3ac64b
Language                                 : English
Default                                  : Yes
Forced                                   : No

Audio #1
ID                                       : 2
Format                                   : AC-3
Format/Info                              : Audio Coding 3
Mode extension                           : CM (complete main)
Format settings, Endianness              : Big
Codec ID                                 : A_AC3
Duration                                 : 2h 22mn
Bit rate mode                            : Constant
Bit rate                                 : 384 Kbps
Channel(s)                               : 6 channels
Channel positions                        : Front: L C R, Side: L R, LFE
Sampling rate                            : 48.0 KHz
Bit depth                                : 16 bits
Compression mode                         : Lossy
Stream size                              : 390 MiB (4%)
Title                                    : www.club-hd.com  >>  Latino AC3 5.1
Language                                 : Spanish
Default                                  : Yes
Forced                                   : No

Audio #2
ID                                       : 3
Format                                   : AC-3
Format/Info                              : Audio Coding 3
Mode extension                           : CM (complete main)
Format settings, Endianness              : Big
Codec ID                                 : A_AC3
Duration                                 : 2h 22mn
Bit rate mode                            : Constant
Bit rate                                 : 640 Kbps
Channel(s)                               : 6 channels
Channel positions                        : Front: L C R, Side: L R, LFE
Sampling rate                            : 48.0 KHz
Bit depth                                : 16 bits
Compression mode                         : Lossy
Stream size                              : 651 MiB (6%)
Title                                    : www.club-hd.com  >>  Inglés AC3 5.1
Language                                 : English
Default                                  : No
Forced                                   : No

Audio #3
ID                                       : 4
Format                                   : DTS
Format/Info                              : Digital Theater Systems
Mode                                     : 16
Format settings, Endianness              : Big
Codec ID                                 : A_DTS
Duration                                 : 2h 22mn
Bit rate mode                            : Constant
Bit rate                                 : 1 509 Kbps
Channel(s)                               : 6 channels
Channel positions                        : Front: L C R, Side: L R, LFE
Sampling rate                            : 48.0 KHz
Bit depth                                : 24 bits
Compression mode                         : Lossy
Stream size                              : 1.50 GiB (14%)
Title                                    : www.club-hd.com  >>  Ingés DTS 5.1
Language                                 : English
Default                                  : No
Forced                                   : No

Text
ID                                       : 5
Format                                   : UTF-8
Codec ID                                 : S_TEXT/UTF8
Codec ID/Info                            : UTF-8 Plain Text
Language                                 : Spanish
Default                                  : No
Forced                                   : No

Menu
00:00:00.000                             : en:00:00:00.000
00:11:04.080                             : en:00:11:04.080
00:22:55.833                             : en:00:22:55.833
00:34:26.898                             : en:00:34:26.898
00:44:48.728                             : en:00:44:48.728
00:55:36.333                             : en:00:55:36.333
01:06:20.643                             : en:01:06:20.643
01:18:27.786                             : en:01:18:27.786
01:31:13.927                             : en:01:31:13.927
01:44:11.954                             : en:01:44:11.954
01:56:35.155                             : en:01:56:35.155
02:05:46.122                             : en:02:05:46.122
02:09:40.982                             : en:02:09:40.982








Enlaces de Mega y Google Drive solo disponibles para Miembros VIP

Compra tu Membresía VIP y apoya a Club-HD!

ATENCIÓN! Tenemos TODO el material de Club-HD disponible por Mega y Google Drive, enlaces 100% activos y online hasta la fecha

Llévate tus cuentas Mega PRO III gratis con tu membresía VIP!
Todos los posts vivos con links de Mega y Google Drive.
Todo el material de Club-HD desbloqueado y sin publicidad.

Click Aquí para más información.



Para ver este contenido oculto, debes dar click en una de las siguientes reacciones : Like Like, Love Love, Haha Haha, Wow Wow, Sad Sad, Angry Angry

 
Última edición por un moderador:

Usuarios Que Están Viendo Este Tema (Total: 1, Miembros: 0, Invitados: 1)

Quién Leyó Este Tema (Total Miembros: 2)

Arriba