The Guilt Trip (2012) m-720p Dual Latino-Inglés [Subt. Esp] (Comedia)

Maestro Revolver

Administrador
Registro
9 Ago 2012
Mensajes
3.157
Reacciones (ptje)
55.034


The-Guilt-Trip.jpg




FichaTecnica.jpg


TÍTULO ORIGINAL: The Guilt Trip
AÑO: 2012
DURACIÓN: 95 min.
PAÍS: USA
DIRECTOR: Anne Fletcher
GUIÓN: Dan Fogelman
REPARTO: Seth Rogen, Barbra Streisand, Adam Scott, Colin Hanks, Danny Pudi, Yvonne Strahovski, Miriam Margolyes, Creed Bratton, Kathy Najimy, Dale Dickey
PRODUCTORA: Broadway Video / John Goldwyn Productions / Paramount Pictures
GÉNERO: Comedia | Road Movie
imdb-logo.png
: http://www.imdb.com/title/tt1694020/




Sinopsis.jpg


Andy Brewster (Seth Rogen, ‘Lío embarazoso’) es un inventor que vive en Los Ángeles y que acaba de crear un limpiador respetuoso con el medio ambiente que, está seguro, causará sensación entre los compradores. El problema es que aún no ha encontrado a ninguno que esté interesado en su artilugio. Así las cosas, Andy decide desplazarse a diferentes lugares del país para promover su invento y no irá solo, porque le propone a su madre (Barbra Streisand, ‘El príncipe de las mareas’) que lo acompañe. Ésta acaba de enviudar y se encuentra bastante deprimida desde que perdió a su esposo, así que Andy tiene la idea de pasar por San Francisco donde vive uno de sus ex. Un viaje de negocios que, además de servir para difundir el producto, servirá para estrechar los lazos entre madre e hijo.




Trailer.jpg






Capturas.jpg


1.jpg


2.jpg


3.jpg


4.jpg


5.jpg


6.jpg


La pelicula NO tiene ninguna marca... solo colocamos el nombre de esta web en las capturas




MediaInfo.jpg


Código:
General
Format                                   : Matroska
Format version                           : Version 2
File size                                : 2.58 GiB
Duration                                 : 1h 35mn
Overall bit rate                         : 3 865 Kbps
Movie name                               : www.club-hd.com
Encoded date                             : UTC 2013-04-17 22:21:18
Writing application                      : mkvmerge v5.7.0 ('The Whirlwind') built on Jul  8 2012 20:08:51
Writing library                          : libebml v1.2.3 + libmatroska v1.3.0

Video
ID                                       : 1
Format                                   : AVC
Format/Info                              : Advanced Video Codec
Format profile                           : [email protected]
Format settings, CABAC                   : Yes
Format settings, ReFrames                : 9 frames
Codec ID                                 : V_MPEG4/ISO/AVC
Duration                                 : 1h 35mn
Bit rate                                 : 2 774 Kbps
Width                                    : 1 280 pixels
Height                                   : 544 pixels
Display aspect ratio                     : 2.35:1
Frame rate mode                          : Constant
Frame rate                               : 23.976 fps
Color space                              : YUV
Chroma subsampling                       : 4:2:0
Bit depth                                : 8 bits
Scan type                                : Progressive
Bits/(Pixel*Frame)                       : 0.166
Stream size                              : 1.80 GiB (70%)
Title                                    : www.club-hd.com
Writing library                          : x264 core 130 r2273 b3065e6
Language                                 : English
Default                                  : Yes
Forced                                   : No

Audio #1
ID                                       : 2
Format                                   : AC-3
Format/Info                              : Audio Coding 3
Mode extension                           : CM (complete main)
Format settings, Endianness              : Big
Codec ID                                 : A_AC3
Duration                                 : 1h 35mn
Bit rate mode                            : Constant
Bit rate                                 : 640 Kbps
Channel(s)                               : 6 channels
Channel positions                        : Front: L C R, Side: L R, LFE
Sampling rate                            : 48.0 KHz
Bit depth                                : 16 bits
Compression mode                         : Lossy
Stream size                              : 438 MiB (17%)
Title                                    : www.club-hd.com  >>  Latino
Language                                 : Spanish
Default                                  : Yes
Forced                                   : No

Audio #2
ID                                       : 3
Format                                   : AC-3
Format/Info                              : Audio Coding 3
Mode extension                           : CM (complete main)
Format settings, Endianness              : Big
Codec ID                                 : A_AC3
Duration                                 : 1h 35mn
Bit rate mode                            : Constant
Bit rate                                 : 448 Kbps
Channel(s)                               : 6 channels
Channel positions                        : Front: L C R, Side: L R, LFE
Sampling rate                            : 48.0 KHz
Bit depth                                : 16 bits
Compression mode                         : Lossy
Stream size                              : 306 MiB (12%)
Title                                    : www.club-hd.com  >>  Inglés
Language                                 : English
Default                                  : No
Forced                                   : No

Text #1
ID                                       : 4
Format                                   : UTF-8
Codec ID                                 : S_TEXT/UTF8
Codec ID/Info                            : UTF-8 Plain Text
Language                                 : Spanish
Default                                  : Yes
Forced                                   : No

Text #2
ID                                       : 5
Format                                   : UTF-8
Codec ID                                 : S_TEXT/UTF8
Codec ID/Info                            : UTF-8 Plain Text
Language                                 : Spanish
Default                                  : No
Forced                                   : No

Menu
00:00:00.000                             : en:Chapter 1
00:07:42.295                             : en:Chapter 2
00:10:35.593                             : en:Chapter 3
00:18:20.933                             : en:Chapter 4
00:26:03.312                             : en:Chapter 5
00:34:55.135                             : en:Chapter 6
00:42:56.574                             : en:Chapter 7
00:47:22.631                             : en:Chapter 8
00:52:52.044                             : en:Chapter 9
01:05:48.903                             : en:Chapter 10
01:09:15.902                             : en:Chapter 11
01:14:31.884                             : en:Chapter 12
01:20:56.518                             : en:Chapter 13
01:28:23.215                             : en:Chapter 14




Descarga.jpg



MEGA.jpg

Tenemos TODO el material de Club-HD disponible por Mega, enlaces 100% activos y online hasta la fecha

Llévate tus cuentas Mega PRO III gratis con tu membresía VIP!
Todos los posts vivos con links de Mega.
Todo el material de Club-HD desbloqueado y sin publicidad.

Obtén más información sobre nuestras Membresías VIP



UPLOADED_BANNER.png

Para ver este contenido oculto, debes dar click en el botón"Like", o cualquiera de las otras reacciones:

Me Gusta Me Gusta, Me Encanta Me Encanta, Jaja Jaja, Wow Wow, Triste Triste, Molesto Molesto

 
Última edición por un moderador:
Ya están de vuelta con nuevos aportes, excelente trabajo masters, muchas gracias!!
 
Gracias por los estrenos Revolver idolo...

Saludos! victory
 
Volver