The Hangover Part III (2013) 1080p BDRip Dual Latino-Inglés [Subt. Esp] (Comedia)

Maestro Revolver

Well-known member
Miembro del Staff
Administrador
Registro
9 Ago 2012
Mensajes
3.567








TÍTULO ORIGINAL: The Hangover Part III
AÑO: 2013
DURACIÓN: 100 min.
PAÍS: USA
DIRECTOR: Todd Phillips
GUIÓN: Todd Phillips, Craig Mazin
REPARTO: Bradley Cooper, Ed Helms, Zach Galifianakis, Ken Jeong, Justin Bartha, John Goodman, Heather Graham, Melissa McCarthy, Jeffrey Tambor, Gillian Vigman, Sasha Barrese, Jamie Chung
PRODUCTORA: Legendary Pictures / Green Hat Films / Warner Bros.
GÉNERO: Comedia | Road Movie. Secuela
: http://www.imdb.com/title/tt1951261/






Tras el trauma de la muerte de su padre, Alan es llevado por sus amigos a un centro especializado, pero en el camino se topan con más de una sorpresa. Esta vez no hay boda. No hay fiesta de graduación. ¿Qué puede ir mal? Pues que cuando estos chicos salen a la carretera, la suerte está echada... Tercera entrega de la franquicia iniciada en 2009 con 'Resacón en Las Vegas'.




























La pelicula NO tiene ninguna marca... solo colocamos el nombre de esta web en las capturas






Código:
General
Format version                           : Version 2
File size                                : 8.36 GiB
Duration                                 : 1h 40mn
Overall bit rate                         : 12.0 Mbps
Movie name                               : www.club-hd.com
Encoded date                             : UTC 2013-09-20 01:31:53
Writing application                      : mkvmerge v5.7.0 ('The Whirlwind') built on Jul  8 2012 20:08:51
Writing library                          : libebml v1.2.3 + libmatroska v1.3.0

Video
ID                                       : 1
Format                                   : AVC
Format/Info                              : Advanced Video Codec
Format profile                           : High@L4.1
Format settings, CABAC                   : Yes
Format settings, ReFrames                : 5 frames
Codec ID                                 : V_MPEG4/ISO/AVC
Duration                                 : 1h 40mn
Bit rate                                 : 9 426 Kbps
Width                                    : 1 920 pixels
Height                                   : 800 pixels
Display aspect ratio                     : 2.40:1
Frame rate mode                          : Constant
Frame rate                               : 23.976 fps
Color space                              : YUV
Chroma subsampling                       : 4:2:0
Bit depth                                : 8 bits
Scan type                                : Progressive
Bits/(Pixel*Frame)                       : 0.256
Stream size                              : 6.43 GiB (77%)
Title                                    : www.club-hd.com
Writing library                          : x264 core 133 r2334 a3ac64b
Language                                 : English
Default                                  : Yes
Forced                                   : No

Audio #1
ID                                       : 2
Format                                   : AC-3
Format/Info                              : Audio Coding 3
Mode extension                           : CM (complete main)
Format settings, Endianness              : Big
Codec ID                                 : A_AC3
Duration                                 : 1h 40mn
Bit rate mode                            : Constant
Bit rate                                 : 384 Kbps
Channel(s)                               : 6 channels
Channel positions                        : Front: L C R, Side: L R, LFE
Sampling rate                            : 48.0 KHz
Bit depth                                : 16 bits
Compression mode                         : Lossy
Delay relative to video                  : 1s 24ms
Stream size                              : 275 MiB (3%)
Title                                    : www.club-hd.com  >>  Latino AC3 5.1
Language                                 : Spanish
Default                                  : Yes
Forced                                   : No

Audio #2
ID                                       : 3
Format                                   : AC-3
Format/Info                              : Audio Coding 3
Mode extension                           : CM (complete main)
Format settings, Endianness              : Big
Codec ID                                 : A_AC3
Duration                                 : 1h 40mn
Bit rate mode                            : Constant
Bit rate                                 : 640 Kbps
Channel(s)                               : 6 channels
Channel positions                        : Front: L C R, Side: L R, LFE
Sampling rate                            : 48.0 KHz
Bit depth                                : 16 bits
Compression mode                         : Lossy
Stream size                              : 458 MiB (5%)
Title                                    : www.club-hd.com  >>  Inglés AC3 5.1
Language                                 : English
Default                                  : No
Forced                                   : No

Audio #3
ID                                       : 4
Format                                   : DTS
Format/Info                              : Digital Theater Systems
Mode                                     : 16
Format settings, Endianness              : Big
Codec ID                                 : A_DTS
Duration                                 : 1h 40mn
Bit rate mode                            : Constant
Bit rate                                 : 1 509 Kbps
Channel(s)                               : 6 channels
Channel positions                        : Front: L C R, Side: L R, LFE
Sampling rate                            : 48.0 KHz
Bit depth                                : 24 bits
Compression mode                         : Lossy
Stream size                              : 1.06 GiB (13%)
Title                                    : www.club-hd.com  >>  Inglés DTS 5.1
Language                                 : English
Default                                  : No
Forced                                   : No

Text
ID                                       : 5
Format                                   : UTF-8
Codec ID                                 : S_TEXT/UTF8
Codec ID/Info                            : UTF-8 Plain Text
Language                                 : Spanish
Default                                  : No
Forced                                   : No

Menu
00:00:00.000                             : en:00:00:00.000
00:10:49.983                             : en:00:10:49.983
00:17:47.692                             : en:00:17:47.692
00:26:16.992                             : en:00:26:16.992
00:37:56.858                             : en:00:37:56.858
00:47:01.736                             : en:00:47:01.736
00:55:08.680                             : en:00:55:08.680
01:06:09.632                             : en:01:06:09.632
01:19:41.735                             : en:01:19:41.735
01:27:44.843                             : en:01:27:44.843
01:34:53.021                             : en:01:34:53.021








Enlaces de Mega y Google Drive solo disponibles para Miembros VIP

Compra tu Membresía VIP y apoya a Club-HD!

ATENCIÓN! Tenemos TODO el material de Club-HD disponible por Mega y Google Drive, enlaces 100% activos y online hasta la fecha

Llévate tus cuentas Mega PRO III gratis con tu membresía VIP!
Todos los posts vivos con links de Mega y Google Drive.
Todo el material de Club-HD desbloqueado y sin publicidad.

Click Aquí para más información.



Enlaces de Mega y Google Drive solo disponibles para Miembros VIP

Compra tu Membresía VIP y apoya a Club-HD!

ATENCIÓN! Tenemos TODO el material de Club-HD disponible por Mega y Google Drive, enlaces 100% activos y online hasta la fecha

Llévate tus cuentas Mega PRO III gratis con tu membresía VIP!
Todos los posts vivos con links de Mega y Google Drive.
Todo el material de Club-HD desbloqueado y sin publicidad.

Click Aquí para más información.



Para ver este contenido oculto, debes dar click en una de las siguientes reacciones : Like Like, Love Love, Haha Haha, Wow Wow, Sad Sad, Angry Angry



Para ver este contenido oculto, debes dar click en una de las siguientes reacciones : Like Like, Love Love, Haha Haha, Wow Wow, Sad Sad, Angry Angry
 
Última edición por un moderador:

uri - mt

Well-known member
Registro
6 Sep 2012
Mensajes
1.262
la primera fue exelente la segunda no me gusto aber que tal la tersera gracias por la peli
 

AleMan80

New member
Registro
30 Ago 2012
Mensajes
1.123
Ubicación
Buenos Aires
Con las otras dos pelis me mate de la risa :crcjd:S_T1 y esta me comentaron que esta igual de buena Tb_up3
ME ENCANTA CUANDO PUBLICAS SAGAS COMPLETAS Y MUCHO MÁS CUANDO SON ESTRENOS d4nce2dance3d4nce2
Por lo que MIL GRACIAS Revolver :pgarb:
Desc_g_
 

Usuarios Que Están Viendo Este Tema (Total: 1, Miembros: 0, Invitados: 1)

Quién Leyó Este Tema (Total Miembros: 2)

Arriba