The Heat (2013) Unrated 1080p BDRip Dual Latino-Inglés [Subt. Esp] (Comedia. Acción)

Maestro Revolver

Administrador
Registro
9 Ago 2012
Mensajes
3.157
Reacciones (ptje)
54.886


The-Heat-1080p.jpg




FichaTecnica.jpg


TÍTULO ORIGINAL: The Heat
AÑO: 2013
DURACIÓN: 117 min.
PAÍS: USA
DIRECTOR: Paul Feig
GUIÓN: Lee Eisenberg, Katie Dippold, Gene Stupnitsky
REPARTO: Sandra Bullock, Melissa McCarthy, Dan Bakkedahl, Michael Rapaport, Marlon Wayans, Tony Hale, Brandon Richardson, Taran Killam, Nathan Corddry, Kaitlin Olson, Demián Bichir, Bill Burr, Michael McDonald
PRODUCTORA: 20th Century Fox / Chernin Entertainment
GÉNERO: Comedia. Acción | Policíaco. Crimen
imdb-logo.png
: http://www.imdb.com/title/tt2404463/




Sinopsis.jpg


Sarah Ashburn es una arrogante detective del FBI que se verá obligada a trabajar a regañadientes junto a Shannon Mullins, una agente de policía de la ciudad de Boston, Massachusetts, de carácter excéntrico e impulsivo. Las dos mujeres tendrán que aprender a resolver sus grandes diferencias, a compartir sus habilidades y a unir sus fuerzas para conseguir el objetivo que tienen en común: acabar de una vez por todas con un terrorista ruso extremadamente peligroso.




Trailer.jpg






Capturas.jpg


1.jpg


2.jpg


3.jpg


4.jpg


5.jpg


6.jpg


La pelicula NO tiene ninguna marca... solo colocamos el nombre de esta web en las capturas




MediaInfo.jpg


Código:
General
Format                                   : Matroska
Format version                           : Version 2
File size                                : 9.66 GiB
Duration                                 : 2h 0mn
Overall bit rate                         : 11.5 Mbps
Movie name                               : www.club-hd.com
Encoded date                             : UTC 2013-10-06 17:08:41
Writing application                      : mkvmerge v5.7.0 ('The Whirlwind') built on Jul  8 2012 20:08:51
Writing library                          : libebml v1.2.3 + libmatroska v1.3.0

Video
ID                                       : 1
Format                                   : AVC
Format/Info                              : Advanced Video Codec
Format profile                           : [email protected]
Format settings, CABAC                   : Yes
Format settings, ReFrames                : 5 frames
Codec ID                                 : V_MPEG4/ISO/AVC
Duration                                 : 2h 0mn
Bit rate                                 : 8 891 Kbps
Width                                    : 1 920 pixels
Height                                   : 800 pixels
Display aspect ratio                     : 2.40:1
Frame rate mode                          : Constant
Frame rate                               : 23.976 fps
Color space                              : YUV
Chroma subsampling                       : 4:2:0
Bit depth                                : 8 bits
Scan type                                : Progressive
Bits/(Pixel*Frame)                       : 0.241
Stream size                              : 7.28 GiB (75%)
Title                                    : www.club-hd.com
Writing library                          : x264 core 133 r2334 a3ac64b
Language                                 : English
Default                                  : Yes
Forced                                   : No

Audio #1
ID                                       : 2
Format                                   : AC-3
Format/Info                              : Audio Coding 3
Mode extension                           : CM (complete main)
Format settings, Endianness              : Big
Codec ID                                 : A_AC3
Duration                                 : 2h 0mn
Bit rate mode                            : Constant
Bit rate                                 : 448 Kbps
Channel(s)                               : 6 channels
Channel positions                        : Front: L C R, Side: L R, LFE
Sampling rate                            : 48.0 KHz
Bit depth                                : 16 bits
Compression mode                         : Lossy
Stream size                              : 386 MiB (4%)
Title                                    : www.club-hd.com  >>  Latino AC3 5.1
Language                                 : Spanish
Default                                  : Yes
Forced                                   : No

Audio #2
ID                                       : 3
Format                                   : AC-3
Format/Info                              : Audio Coding 3
Mode extension                           : CM (complete main)
Format settings, Endianness              : Big
Codec ID                                 : A_AC3
Duration                                 : 2h 0mn
Bit rate mode                            : Constant
Bit rate                                 : 640 Kbps
Channel(s)                               : 6 channels
Channel positions                        : Front: L C R, Side: L R, LFE
Sampling rate                            : 48.0 KHz
Bit depth                                : 16 bits
Compression mode                         : Lossy
Stream size                              : 551 MiB (6%)
Title                                    : www.club-hd.com  >>  Inglés AC3 5.1
Language                                 : English
Default                                  : No
Forced                                   : No

Audio #3
ID                                       : 4
Format                                   : DTS
Format/Info                              : Digital Theater Systems
Mode                                     : 16
Format settings, Endianness              : Big
Codec ID                                 : A_DTS
Duration                                 : 2h 0mn
Bit rate mode                            : Constant
Bit rate                                 : 1 509 Kbps
Channel(s)                               : 6 channels
Channel positions                        : Front: L C R, Side: L R, LFE
Sampling rate                            : 48.0 KHz
Bit depth                                : 24 bits
Compression mode                         : Lossy
Stream size                              : 1.27 GiB (13%)
Title                                    : www.club-hd.com  >>  Inglés DTS 5.1
Language                                 : English
Default                                  : No
Forced                                   : No

Text
ID                                       : 5
Format                                   : UTF-8
Codec ID                                 : S_TEXT/UTF8
Codec ID/Info                            : UTF-8 Plain Text
Language                                 : Spanish
Default                                  : No
Forced                                   : No

Menu
00:00:00.000                             : en:00:00:00.000
00:01:46.023                             : en:00:01:46.023
00:05:28.453                             : en:00:05:28.453
00:07:15.977                             : en:00:07:15.977
00:11:26.436                             : en:00:11:26.436
00:14:17.899                             : en:00:14:17.899
00:16:38.956                             : en:00:16:38.956
00:19:50.940                             : en:00:19:50.940
00:23:23.610                             : en:00:23:23.610
00:26:18.118                             : en:00:26:18.118
00:30:11.977                             : en:00:30:11.977
00:34:07.837                             : en:00:34:07.837
00:36:27.101                             : en:00:36:27.101
00:39:12.975                             : en:00:39:12.975
00:44:44.140                             : en:00:44:44.140
00:47:59.585                             : en:00:47:59.585
00:52:59.801                             : en:00:52:59.801
00:56:13.787                             : en:00:56:13.787
01:00:57.779                             : en:01:00:57.779
01:03:25.802                             : en:01:03:25.802
01:05:47.151                             : en:01:05:47.151
01:09:34.795                             : en:01:09:34.795
01:17:00.574                             : en:01:17:00.574
01:23:38.638                             : en:01:23:38.638
01:26:51.623                             : en:01:26:51.623
01:28:37.020                             : en:01:28:37.020
01:31:07.420                             : en:01:31:07.420
01:34:08.559                             : en:01:34:08.559
01:37:03.234                             : en:01:37:03.234
01:39:41.225                             : en:01:39:41.225
01:44:20.671                             : en:01:44:20.671
01:45:41.502                             : en:01:45:41.502
01:48:54.569                             : en:01:48:54.569
01:51:15.710                             : en:01:51:15.710
01:54:02.711                             : en:01:54:02.711
01:55:24.876                             : en:01:55:24.876




Descarga.jpg



MEGA.jpg

Tenemos TODO el material de Club-HD disponible por Mega, enlaces 100% activos y online hasta la fecha

Llévate tus cuentas Mega PRO III gratis con tu membresía VIP!
Todos los posts vivos con links de Mega.
Todo el material de Club-HD desbloqueado y sin publicidad.

Obtén más información sobre nuestras Membresías VIP



UPLOADED_BANNER.png

Para ver este contenido oculto, debes dar click en el botón"Like", o cualquiera de las otras reacciones:

Me Gusta Me Gusta, Me Encanta Me Encanta, Jaja Jaja, Wow Wow, Triste Triste, Molesto Molesto

 
Última edición por un moderador:
Volver