The Hobbit: An Unexpected Journey (2012) 1080p BDRip Dual Latino-Inglés [Subt. Esp-Ing] (Fantástico. Aventuras. Acción)

Maestro Revolver

Well-known member
Miembro del Staff
Administrador
Registro
9 Ago 2012
Mensajes
3.567

Rep:









TÍTULO ORIGINAL: The Hobbit: An Unexpected Journey
AÑO: 2012
DURACIÓN: 169 min.
PAÍS: USA
DIRECTOR: Peter Jackson
GUIÓN: Fran Walsh, Philippa Boyens, Peter Jackson, Guillermo del Toro (Novela: J.R.R. Tolkien)
REPARTO: Martin Freeman, Ian McKellen, Richard Armitage, James Nesbitt, Aidan Turner, Graham McTavish, Jed Brophy, Stephen Hunter, Ken Stott, John Callen, Adam Brown, Dean O'Gorman, William Kircher, Peter Hambleton, Mark Hadlow, Hugo Weaving, Andy Serkis, Sylvester McCoy, Cate Blanchett, Christopher Lee, Elijah Wood, Ian Holm, Barry Humphries, Jeffrey Thomas, Lee Pace, Conan Stevens, Bret McKenzie, Manu Bennett
PRODUCTORA: Co-producción USA-Nueva Zelanda; Warner Bros. Pictures / MGM / New Line Cinema / WingNut Films
GÉNERO: Fantástico. Aventuras. Acción | Precuela. Espada y brujería. Dragones. 3-D
: http://www.imdb.com/title/tt0903624/

PREMIOS: 2012: Oscars: Nominada a Maquillaje, Dirección Artística y Efectos Visuales
2012: Premios BAFTA: Nominada a Sonido, Efectos Visuales y Maquillaje/Peluquería
2012: Critics Choice Awards: 4 nominaciones técnicas






Precuela de la trilogía "El Señor de los Anillos", obra de J.R.R. Tolkien. En compañía del mago Gandalf y de trece enanos, el hobbit Bilbo Bolsón emprende un viaje a través del país de los elfos y los bosques de los trolls, desde las mazmorras de los orcos hasta la Montaña Solitaria, donde el dragón Smaug esconde el tesoro de los Enanos. Finalmente, en las profundidades de la Tierra, encuentra el Anillo Único, hipnótico objeto que será posteriormente causa de tantas sangrientas batallas en la Tierra Media.






























La pelicula NO tiene ninguna marca... solo colocamos el nombre de esta web en las capturas






Código:
General
Format                                   : Matroska
Format version                           : Version 2
File size                                : 14.4 GiB
Duration                                 : 2h 49mn
Overall bit rate                         : 12.2 Mbps
Movie name                               : www.club-hd.com
Encoded date                             : UTC 2013-03-03 15:45:15
Writing application                      : mkvmerge v5.8.0 ('No Sleep / Pillow') built on Sep  2 2012 15:37:04
Writing library                          : libebml v1.2.3 + libmatroska v1.3.0

Video
ID                                       : 1
Format                                   : AVC
Format/Info                              : Advanced Video Codec
Format profile                           : High@L4.1
Format settings, CABAC                   : Yes
Format settings, ReFrames                : 5 frames
Codec ID                                 : V_MPEG4/ISO/AVC
Duration                                 : 2h 49mn
Bit rate                                 : 9 559 Kbps
Width                                    : 1 920 pixels
Height                                   : 800 pixels
Display aspect ratio                     : 2.40:1
Frame rate mode                          : Constant
Frame rate                               : 23.976 fps
Color space                              : YUV
Chroma subsampling                       : 4:2:0
Bit depth                                : 8 bits
Scan type                                : Progressive
Bits/(Pixel*Frame)                       : 0.260
Stream size                              : 11.0 GiB (77%)
Title                                    : www.club-hd.com
Writing library                          : x264 core 129 r2245 bc13772
Language                                 : English
Default                                  : Yes
Forced                                   : No

Audio #1
ID                                       : 2
Format                                   : AC-3
Format/Info                              : Audio Coding 3
Mode extension                           : CM (complete main)
Format settings, Endianness              : Big
Codec ID                                 : A_AC3
Duration                                 : 2h 49mn
Bit rate mode                            : Constant
Bit rate                                 : 448 Kbps
Channel(s)                               : 6 channels
Channel positions                        : Front: L C R, Side: L R, LFE
Sampling rate                            : 48.0 KHz
Bit depth                                : 16 bits
Compression mode                         : Lossy
Stream size                              : 544 MiB (4%)
Title                                    : www.club-hd.com  >>  Latino AC3 5.1 [COLOR=#008000][B][U]del Bluray[/U][/B][/COLOR]
Language                                 : Spanish
Default                                  : Yes
Forced                                   : No

Audio #2
ID                                       : 3
Format                                   : AC-3
Format/Info                              : Audio Coding 3
Mode extension                           : CM (complete main)
Format settings, Endianness              : Big
Codec ID                                 : A_AC3
Duration                                 : 2h 49mn
Bit rate mode                            : Constant
Bit rate                                 : 640 Kbps
Channel(s)                               : 6 channels
Channel positions                        : Front: L C R, Side: L R, LFE
Sampling rate                            : 48.0 KHz
Bit depth                                : 16 bits
Compression mode                         : Lossy
Stream size                              : 777 MiB (5%)
Title                                    : www.club-hd.com  >>  Inglés AC3 5.1
Language                                 : English
Default                                  : No
Forced                                   : No

Audio #3
ID                                       : 4
Format                                   : DTS
Format/Info                              : Digital Theater Systems
Mode                                     : 16
Format settings, Endianness              : Big
Codec ID                                 : A_DTS
Duration                                 : 2h 49mn
Bit rate mode                            : Constant
Bit rate                                 : 1 509 Kbps
Channel(s)                               : 6 channels
Channel positions                        : Front: L C R, Side: L R, LFE
Sampling rate                            : 48.0 KHz
Bit depth                                : 24 bits
Compression mode                         : Lossy
Stream size                              : 1.79 GiB (12%)
Title                                    : www.club-hd.com  >>  Inglés DTS 5.1
Language                                 : English
Default                                  : No
Forced                                   : No

Text #1
ID                                       : 5
Format                                   : UTF-8
Codec ID                                 : S_TEXT/UTF8
Codec ID/Info                            : UTF-8 Plain Text
Title                                    : Forzados
Language                                 : Spanish
Default                                  : Yes
Forced                                   : No

Text #2
ID                                       : 6
Format                                   : UTF-8
Codec ID                                 : S_TEXT/UTF8
Codec ID/Info                            : UTF-8 Plain Text
Language                                 : Spanish
Default                                  : No
Forced                                   : No

Text #3
ID                                       : 7
Format                                   : UTF-8
Codec ID                                 : S_TEXT/UTF8
Codec ID/Info                            : UTF-8 Plain Text
Language                                 : English
Default                                  : No
Forced                                   : No

Menu
00:00:00.000                             : en:00:00:00.000
00:08:51.531                             : en:00:08:51.531
00:12:58.903                             : en:00:12:58.903
00:16:34.619                             : en:00:16:34.619
00:20:50.666                             : en:00:20:50.666
00:25:09.007                             : en:00:25:09.007
00:33:14.409                             : en:00:33:14.409
00:38:26.804                             : en:00:38:26.804
00:43:40.368                             : en:00:43:40.368
00:50:12.301                             : en:00:50:12.301
00:55:16.939                             : en:00:55:16.939
00:57:04.838                             : en:00:57:04.838
01:07:51.943                             : en:01:07:51.943
01:12:11.369                             : en:01:12:11.369
01:16:03.559                             : en:01:16:03.559
01:22:06.463                             : en:01:22:06.463
01:28:49.991                             : en:01:28:49.991
01:32:03.518                             : en:01:32:03.518
01:33:42.534                             : en:01:33:42.534
01:40:29.607                             : en:01:40:29.607
01:43:06.847                             : en:01:43:06.847
01:49:12.963                             : en:01:49:12.963
01:54:04.588                             : en:01:54:04.588
01:56:58.094                             : en:01:56:58.094
02:10:27.945                             : en:02:10:27.945
02:12:26.021                             : en:02:12:26.021
02:13:37.718                             : en:02:13:37.718
02:17:59.438                             : en:02:17:59.438
02:20:09.359                             : en:02:20:09.359
02:22:59.112                             : en:02:22:59.112
02:33:58.563                             : en:02:33:58.563
02:39:27.558                             : en:02:39:27.558










Enlaces de Mega y Google Drive solo disponibles para Miembros VIP

Compra tu Membresía VIP y apoya a Club-HD!

ATENCIÓN! Tenemos TODO el material de Club-HD disponible por Mega y Google Drive, enlaces 100% activos y online hasta la fecha

Llévate tus cuentas Mega PRO III gratis con tu membresía VIP!
Todos los posts vivos con links de Mega y Google Drive.
Todo el material de Club-HD desbloqueado y sin publicidad.

Click Aquí para más información.




Enlaces de Mega y Google Drive solo disponibles para Miembros VIP

Compra tu Membresía VIP y apoya a Club-HD!

ATENCIÓN! Tenemos TODO el material de Club-HD disponible por Mega y Google Drive, enlaces 100% activos y online hasta la fecha

Llévate tus cuentas Mega PRO III gratis con tu membresía VIP!
Todos los posts vivos con links de Mega y Google Drive.
Todo el material de Club-HD desbloqueado y sin publicidad.

Click Aquí para más información.


Enlaces de Mega y Google Drive solo disponibles para Miembros VIP

Compra tu Membresía VIP y apoya a Club-HD!

ATENCIÓN! Tenemos TODO el material de Club-HD disponible por Mega y Google Drive, enlaces 100% activos y online hasta la fecha

Llévate tus cuentas Mega PRO III gratis con tu membresía VIP!
Todos los posts vivos con links de Mega y Google Drive.
Todo el material de Club-HD desbloqueado y sin publicidad.

Click Aquí para más información.


Para ver este contenido oculto, debes dar click en una de las siguientes reacciones : Like Like, Love Love, Haha Haha, Wow Wow, Sad Sad, Angry Angry

Para ver este contenido oculto, debes dar click en una de las siguientes reacciones : Like Like, Love Love, Haha Haha, Wow Wow, Sad Sad, Angry Angry
 
Última edición por un moderador:

nathan8

Well-known member
Registro
27 Ago 2012
Mensajes
1.767
Edad
32

Rep:

muchas grasias tenia tiempo esperandola., eres el mejor
 

Ezze

Well-known member
Miembro del Staff
Súper Moderador
Miembro VIP
Registro
28 Ago 2012
Mensajes
1.666
Ubicación
En la Torre de Observación

Rep:

Wow!!! IMPECABLE!!!! :D:D:D:D Que tremendo aporte!! Una de las más esperadas de este año por mí... Muchas gracias maestro!!! Saludos guit4r_3
 

jalsavar

Active member
Registro
28 Ago 2012
Mensajes
318
Ubicación
Mexico

Rep:

Que gran aporte mie estimados amigos gracias por gran labor de publicar estas grandiosas peliculas
 

Joc

Member
Registro
27 Ago 2012
Mensajes
187

Rep:

Casi me salen lagrimas cuando vi el peso de la pelicula Q_Q
Pero bueno, creo que vale la pena :D
 

arkkangeldark

Well-known member
Registro
27 Ago 2012
Mensajes
3.496
Edad
35
Ubicación
Torreon Coahuila

Rep:

vamonos vamonos a descargarla, muchas gracias en 1080p excelente calidad que lo vale y una grandiosa pelicula la verdad las 3 horas casi ni se sienten, una gran pelicula para este domingo, buen avatar nuevo revolver. saludos
 

Usuarios Que Están Viendo Este Tema (Total: 1, Miembros: 0, Invitados: 1)

Quién Leyó Este Tema (Total Miembros: 2)

Arriba