The Hobbit: An Unexpected Journey (2012) 3D H-SBS 1080p BDRip Dual Latino-Inglés [Subt. Esp] (Fantástico. Aventuras. Acción)

Maestro Revolver

Well-known member
Miembro del Staff
Administrador
Registro
9 Ago 2012
Mensajes
3.569
Reacciones
59.366
Puntos
113

Reputation:









TÍTULO ORIGINAL: The Hobbit: An Unexpected Journey
AÑO: 2012
DURACIÓN: 169 min.
PAÍS: USA
DIRECTOR: Peter Jackson
GUIÓN: Fran Walsh, Philippa Boyens, Peter Jackson, Guillermo del Toro (Novela: J.R.R. Tolkien)
REPARTO: Martin Freeman, Ian McKellen, Richard Armitage, James Nesbitt, Aidan Turner, Graham McTavish, Jed Brophy, Stephen Hunter, Ken Stott, John Callen, Adam Brown, Dean O'Gorman, William Kircher, Peter Hambleton, Mark Hadlow, Hugo Weaving, Andy Serkis, Sylvester McCoy, Cate Blanchett, Christopher Lee, Elijah Wood, Ian Holm, Barry Humphries, Jeffrey Thomas, Lee Pace, Conan Stevens, Bret McKenzie, Manu Bennett
PRODUCTORA: Co-producción USA-Nueva Zelanda; Warner Bros. Pictures / MGM / New Line Cinema / WingNut Films
GÉNERO: Fantástico. Aventuras. Acción | Precuela. Espada y brujería. Dragones. 3-D
: http://www.imdb.com/title/tt0903624/

PREMIOS: 2012: Oscars: Nominada a Maquillaje, Dirección Artística y Efectos Visuales
2012: Premios BAFTA: Nominada a Sonido, Efectos Visuales y Maquillaje/Peluquería
2012: Critics Choice Awards: 4 nominaciones técnicas






Precuela de la trilogía "El Señor de los Anillos", obra de J.R.R. Tolkien. En compañía del mago Gandalf y de trece enanos, el hobbit Bilbo Bolsón emprende un viaje a través del país de los elfos y los bosques de los trolls, desde las mazmorras de los orcos hasta la Montaña Solitaria, donde el dragón Smaug esconde el tesoro de los Enanos. Finalmente, en las profundidades de la Tierra, encuentra el Anillo Único, hipnótico objeto que será posteriormente causa de tantas sangrientas batallas en la Tierra Media.
























La pelicula NO tiene ninguna marca... solo colocamos el nombre de esta web en las capturas






Código:
General
Format                                   : Matroska
Format version                           : Version 3 / Version 2
File size                                : 17.9 GiB
Duration                                 : 2h 49mn
Overall bit rate                         : 15.1 Mbps
Movie name                               : www.club-hd.com
Encoded date                             : UTC 2013-03-04 19:31:54
Writing application                      : mkvmerge v5.7.0 ('The Whirlwind') built on Jul  8 2012 20:08:51
Writing library                          : libebml v1.2.3 + libmatroska v1.3.0

Video
ID                                       : 1
Format                                   : AVC
Format/Info                              : Advanced Video Codec
Format profile                           : High@L4.1
MultiView_Count                          : 2
MultiView_Layout                         : Side by Side (left eye first)
Format settings, CABAC                   : Yes
Format settings, ReFrames                : 4 frames
Codec ID                                 : V_MPEG4/ISO/AVC
Duration                                 : 2h 49mn
Bit rate                                 : 12.2 Mbps
Width                                    : 1 920 pixels
Height                                   : 1 080 pixels
Display aspect ratio                     : 16:9
Frame rate mode                          : Constant
Frame rate                               : 23.976 fps
Color space                              : YUV
Chroma subsampling                       : 4:2:0
Bit depth                                : 8 bits
Scan type                                : Progressive
Bits/(Pixel*Frame)                       : 0.245
Stream size                              : 14.4 GiB (81%)
Title                                    : www.club-hd.com
Writing library                          : x264 core 130 r2273 b3065e6
Language                                 : English
Default                                  : Yes
Forced                                   : No

Audio #1
ID                                       : 2
Format                                   : AC-3
Format/Info                              : Audio Coding 3
Mode extension                           : CM (complete main)
Format settings, Endianness              : Big
Codec ID                                 : A_AC3
Duration                                 : 2h 49mn
Bit rate mode                            : Constant
Bit rate                                 : 448 Kbps
Channel(s)                               : 6 channels
Channel positions                        : Front: L C R, Side: L R, LFE
Sampling rate                            : 48.0 KHz
Bit depth                                : 16 bits
Compression mode                         : Lossy
Stream size                              : 544 MiB (3%)
Title                                    : www.club-hd.com  >>  Latino AC3 5.1
Language                                 : Spanish
Default                                  : Yes
Forced                                   : No

Audio #2
ID                                       : 3
Format                                   : AC-3
Format/Info                              : Audio Coding 3
Mode extension                           : CM (complete main)
Format settings, Endianness              : Big
Codec ID                                 : A_AC3
Duration                                 : 2h 49mn
Bit rate mode                            : Constant
Bit rate                                 : 640 Kbps
Channel(s)                               : 6 channels
Channel positions                        : Front: L C R, Side: L R, LFE
Sampling rate                            : 48.0 KHz
Bit depth                                : 16 bits
Compression mode                         : Lossy
Stream size                              : 777 MiB (4%)
Title                                    : www.club-hd.com  >>  Inglés AC3 5.1
Language                                 : English
Default                                  : No
Forced                                   : No

Audio #3
ID                                       : 4
Format                                   : DTS
Format/Info                              : Digital Theater Systems
Mode                                     : 16
Format settings, Endianness              : Big
Codec ID                                 : A_DTS
Duration                                 : 2h 49mn
Bit rate mode                            : Constant
Bit rate                                 : 1 509 Kbps
Channel(s)                               : 6 channels
Channel positions                        : Front: L C R, Side: L R, LFE
Sampling rate                            : 48.0 KHz
Bit depth                                : 24 bits
Compression mode                         : Lossy
Stream size                              : 1.79 GiB (10%)
Title                                    : www.club-hd.com  >>  Inglés DTS 5.1
Language                                 : English
Default                                  : No
Forced                                   : No

Text #1
ID                                       : 5
Format                                   : UTF-8
Codec ID                                 : S_TEXT/UTF8
Codec ID/Info                            : UTF-8 Plain Text
Title                                    : Forzados
Language                                 : Spanish
Default                                  : Yes
Forced                                   : No

Text #2
ID                                       : 6
Format                                   : UTF-8
Codec ID                                 : S_TEXT/UTF8
Codec ID/Info                            : UTF-8 Plain Text
Language                                 : Spanish
Default                                  : No
Forced                                   : No

[B][SIZE=4][COLOR=#008000]Incluye Subtítulos 3D en la carpeta "Subs 3D"[/COLOR][/SIZE][/B]


Menu
00:00:00.000                             : en:00:00:00.000
00:08:51.531                             : en:00:08:51.531
00:12:58.903                             : en:00:12:58.903
00:16:34.619                             : en:00:16:34.619
00:20:50.666                             : en:00:20:50.666
00:25:09.007                             : en:00:25:09.007
00:33:14.409                             : en:00:33:14.409
00:38:26.804                             : en:00:38:26.804
00:43:40.368                             : en:00:43:40.368
00:50:12.301                             : en:00:50:12.301
00:55:16.939                             : en:00:55:16.939
00:57:04.838                             : en:00:57:04.838
01:07:51.985                             : en:01:07:51.985
01:12:11.369                             : en:01:12:11.369
01:16:03.559                             : en:01:16:03.559
01:22:06.463                             : en:01:22:06.463
01:28:49.991                             : en:01:28:49.991
01:32:03.518                             : en:01:32:03.518
01:40:33.117                             : en:01:40:33.117
01:43:10.357                             : en:01:43:10.357
01:49:16.473                             : en:01:49:16.473
01:54:08.098                             : en:01:54:08.098
01:57:01.605                             : en:01:57:01.605
02:10:31.455                             : en:02:10:31.455
02:12:29.532                             : en:02:12:29.532
02:13:41.228                             : en:02:13:41.228
02:18:02.948                             : en:02:18:02.948
02:20:12.869                             : en:02:20:12.869
02:23:02.622                             : en:02:23:02.622
02:34:02.073                             : en:02:34:02.073
02:39:31.068                             : en:02:39:31.068










Enlaces de Mega y Fireload solo disponibles para Miembros VIP

Compra tu Membresía VIP y apoya a Club-HD!

ATENCIÓN! Tenemos TODO el material de Club-HD disponible por Mega y Fireload, enlaces 100% activos y online hasta la fecha

Llévate tus cuentas Mega PRO II gratis con tu membresía VIP!
Todos los posts vivos con links de Mega y Fireload.
Todo el material de Club-HD desbloqueado y sin publicidad.

Click Aquí para más información.




Enlaces de Mega y Fireload solo disponibles para Miembros VIP

Compra tu Membresía VIP y apoya a Club-HD!

ATENCIÓN! Tenemos TODO el material de Club-HD disponible por Mega y Fireload, enlaces 100% activos y online hasta la fecha

Llévate tus cuentas Mega PRO II gratis con tu membresía VIP!
Todos los posts vivos con links de Mega y Fireload.
Todo el material de Club-HD desbloqueado y sin publicidad.

Click Aquí para más información.



Para ver este contenido oculto, debes dar click en una de las siguientes reacciones : Like Like, Love Love, Haha Haha, Wow Wow, Sad Sad, Angry Angry

 
Última edición:

Yonatan

Admin
Miembro del Staff
Administrador
Registro
27 Ago 2012
Mensajes
1.768
Reacciones
3.730
Puntos
113
Edad
28
Ubicación
Chile, Sexta Región

Reputation:

:dplgar: perfecto master en 3D, como me gustaria bajarmela pero mi internet es una porqueria


gracias de todas maneras algun dia me la bajare

saludos xD
 

zacygal

Well-known member
Registro
3 Sep 2012
Mensajes
1.515
Reacciones
1.536
Puntos
113
Edad
49

Reputation:

terminare kon toda las pelikulas k tengo en cola y empezare a bajar las de 3D, gracias ...

:dplgar:
 

Claudia

New member
Súper Moderador
Registro
28 Ago 2012
Mensajes
2.288
Reacciones
2.928
Puntos
0
Edad
48
Ubicación
EN MI MUNDO REAL...

Reputation:

gracias Master, pero al igual que Yon mi internet es una porqueria jajjaj, sos una bestia MasterPl4yb0yGRACIASSSS POR TANTA EXCELENCIA
 

Ezze

Well-known member
Miembro del Staff
Súper Moderador
Registro
28 Ago 2012
Mensajes
1.664
Reacciones
1.792
Puntos
113
Ubicación
En la Torre de Observación

Reputation:

Muchas gracias Revo... Estoy comenzando a bajar 3D para cuando tenga una pantalla para verlas. Saludos bro guit4r_3
 

oscar27jimenez

New member
Registro
28 Ago 2012
Mensajes
212
Reacciones
5
Puntos
0
Edad
29

Reputation:

por el amor de CRISTOO!! la estaba esperando con ansioso!! gracias amigo!!! se te aprecia mucho, saludos desde Guatemala!!
 

Usuarios Que Están Viendo Este Tema (Total: 1, Miembros: 0, Invitados: 1)

Arriba