The Hobbit: An Unexpected Journey (2012) EXTENDED 1080p BDRip Audio Inglés [Subt. Esp] (Fantástico. Aventura. Acción)

Maestro Revolver

Administrador
Registro
9 Ago 2012
Mensajes
3.157
Reacciones (ptje)
55.374


The-Hobbit-EXT-1080p.jpg




FichaTecnica.jpg


TÍTULO ORIGINAL: The Hobbit: An Unexpected Journey
AÑO: 2012
DURACIÓN: 182 min.
PAÍS: USA
DIRECTOR: Peter Jackson
GUIÓN: Fran Walsh, Philippa Boyens, Peter Jackson, Guillermo del Toro (Novela: J.R.R. Tolkien)
REPARTO: Martin Freeman, Ian McKellen, Richard Armitage, James Nesbitt, Aidan Turner, Graham McTavish, Jed Brophy, Stephen Hunter, Ken Stott, John Callen, Adam Brown, Dean O'Gorman, William Kircher, Peter Hambleton, Mark Hadlow, Hugo Weaving, Andy Serkis, Sylvester McCoy, Cate Blanchett, Christopher Lee, Elijah Wood, Ian Holm, Barry Humphries, Jeffrey Thomas, Lee Pace, Conan Stevens, Bret McKenzie, Manu Bennett
PRODUCTORA: Co-producción USA-Nueva Zelanda; Warner Bros. Pictures / MGM / New Line Cinema / WingNut Films
GÉNERO: Fantástico. Aventuras. Acción | Precuela. Espada y brujería. Dragones. 3-D
imdb-logo.png
: http://www.imdb.com/title/tt0903624/

PREMIOS: 2012: Oscars: Nominada a Maquillaje, Dirección Artística y Efectos Visuales
2012: Premios BAFTA: Nominada a Sonido, Efectos Visuales y Maquillaje/Peluquería
2012: Critics Choice Awards: 4 nominaciones técnicas




Sinopsis.jpg


Precuela de la trilogía "El Señor de los Anillos", obra de J.R.R. Tolkien. En compañía del mago Gandalf y de trece enanos, el hobbit Bilbo Bolsón emprende un viaje a través del país de los elfos y los bosques de los trolls, desde las mazmorras de los orcos hasta la Montaña Solitaria, donde el dragón Smaug esconde el tesoro de los Enanos. Finalmente, en las profundidades de la Tierra, encuentra el Anillo Único, hipnótico objeto que será posteriormente causa de tantas sangrientas batallas en la Tierra Media.




Trailer.jpg






Capturas.jpg


1.jpg


2.jpg


3.jpg


4.jpg


5.jpg


6.jpg


7.jpg


La pelicula NO tiene ninguna marca... solo colocamos el nombre de esta web en las capturas




MediaInfo.jpg


Código:
General
Format                                   : Matroska
Format version                           : Version 2
File size                                : 13.9 GiB
Duration                                 : 3h 2mn
Overall bit rate                         : 10.9 Mbps
Movie name                               : www.club-hd.com
Encoded date                             : UTC 2013-11-17 17:46:36
Writing application                      : mkvmerge v5.7.0 ('The Whirlwind') built on Jul  8 2012 20:08:51
Writing library                          : libebml v1.2.3 + libmatroska v1.3.0

Video
ID                                       : 1
Format                                   : AVC
Format/Info                              : Advanced Video Codec
Format profile                           : [email protected]
Format settings, CABAC                   : Yes
Format settings, ReFrames                : 5 frames
Codec ID                                 : V_MPEG4/ISO/AVC
Duration                                 : 3h 2mn
Bit rate                                 : 8 779 Kbps
Width                                    : 1 920 pixels
Height                                   : 800 pixels
Display aspect ratio                     : 2.40:1
Frame rate mode                          : Constant
Frame rate                               : 23.976 fps
Color space                              : YUV
Chroma subsampling                       : 4:2:0
Bit depth                                : 8 bits
Scan type                                : Progressive
Bits/(Pixel*Frame)                       : 0.238
Stream size                              : 10.9 GiB (78%)
Title                                    : www.club-hd.com
Writing library                          : x264 core 133 r2334 a3ac64b
Language                                 : English
Default                                  : Yes
Forced                                   : No

Audio #1
ID                                       : 2
Format                                   : DTS
Format/Info                              : Digital Theater Systems
Mode                                     : 16
Format settings, Endianness              : Big
Codec ID                                 : A_DTS
Duration                                 : 3h 2mn
Bit rate mode                            : Constant
Bit rate                                 : 1 509 Kbps
Channel(s)                               : 6 channels
Channel positions                        : Front: L C R, Side: L R, LFE
Sampling rate                            : 48.0 KHz
Bit depth                                : 24 bits
Compression mode                         : Lossy
Stream size                              : 1.92 GiB (14%)
Title                                    : www.club-hd.com  >>  DTS
Language                                 : English
Default                                  : Yes
Forced                                   : No

Audio #2
ID                                       : 3
Format                                   : AC-3
Format/Info                              : Audio Coding 3
Mode extension                           : CM (complete main)
Format settings, Endianness              : Big
Codec ID                                 : A_AC3
Duration                                 : 3h 2mn
Bit rate mode                            : Constant
Bit rate                                 : 640 Kbps
Channel(s)                               : 6 channels
Channel positions                        : Front: L C R, Side: L R, LFE
Sampling rate                            : 48.0 KHz
Bit depth                                : 16 bits
Compression mode                         : Lossy
Stream size                              : 836 MiB (6%)
Title                                    : www.club-hd.com  >>  AC3
Language                                 : English
Default                                  : No
Forced                                   : No

Text
ID                                       : 4
Format                                   : UTF-8
Codec ID                                 : S_TEXT/UTF8
Codec ID/Info                            : UTF-8 Plain Text
Language                                 : Spanish
Default                                  : Yes
Forced                                   : No

Menu
00:00:00.000                             : en:00:00:00.000
00:10:11.903                             : en:00:10:11.903
00:14:08.723                             : en:00:14:08.723
00:17:27.255                             : en:00:17:27.255
00:18:44.623                             : en:00:18:44.623
00:23:16.604                             : en:00:23:16.604
00:27:59.469                             : en:00:27:59.469
00:36:04.871                             : en:00:36:04.871
00:41:17.266                             : en:00:41:17.266
00:46:30.830                             : en:00:46:30.830
00:53:04.181                             : en:00:53:04.181
00:58:07.651                             : en:00:58:07.651
00:59:55.300                             : en:00:59:55.300
01:10:42.405                             : en:01:10:42.405
01:15:01.831                             : en:01:15:01.831
01:18:52.811                             : en:01:18:52.811
01:24:56.925                             : en:01:24:56.925
01:30:34.429                             : en:01:30:34.429
01:34:10.603                             : en:01:34:10.603
01:37:24.464                             : en:01:37:24.464
01:39:03.479                             : en:01:39:03.479
01:41:40.803                             : en:01:41:40.803
01:50:22.533                             : en:01:50:22.533
01:52:59.773                             : en:01:52:59.773
01:59:06.348                             : en:01:59:06.348
02:03:57.513                             : en:02:03:57.513
02:09:51.575                             : en:02:09:51.575
02:23:21.426                             : en:02:23:21.426
02:25:18.877                             : en:02:25:18.877
02:26:31.199                             : en:02:26:31.199
02:30:52.919                             : en:02:30:52.919
02:33:00.546                             : en:02:33:00.546
02:35:52.593                             : en:02:35:52.593
02:46:51.210                             : en:02:46:51.210
02:52:21.373                             : en:02:52:21.373




Descarga.jpg



MEGA.jpg

Tenemos TODO el material de Club-HD disponible por Mega, enlaces 100% activos y online hasta la fecha

Llévate tus cuentas Mega PRO III gratis con tu membresía VIP!
Todos los posts vivos con links de Mega.
Todo el material de Club-HD desbloqueado y sin publicidad.

Obtén más información sobre nuestras Membresías VIP


1FICHIER-BANNER.png

Tenemos TODO el material de Club-HD disponible por Mega, enlaces 100% activos y online hasta la fecha

Llévate tus cuentas Mega PRO III gratis con tu membresía VIP!
Todos los posts vivos con links de Mega.
Todo el material de Club-HD desbloqueado y sin publicidad.

Obtén más información sobre nuestras Membresías VIP


UPLOADED_BANNER.png

Para ver este contenido oculto, debes dar click en el botón"Like", o cualquiera de las otras reacciones:

Me Gusta Me Gusta, Me Encanta Me Encanta, Jaja Jaja, Wow Wow, Triste Triste, Molesto Molesto
 
Última edición por un moderador:
:OHHH:La Versión EXTEDIDA, MUCHAS GRACIAS Revolver :dplgar:
La Versión Original dura unas 02:50 Hs por lo tanto esta tiene unos 12minutos extras. Habrá que reverla
LXR_2LXR_2LXR_2LXR_2 LXR_2 Por favor, traela en 720p así actualizo la anterior LXR_2LXR_2LXR_2LXR_2 LXR_2
 
disculpen mi ignorancia pero esta que trae diferente a la anterior versión ? dicho sea de paso con esta película estrene un buen equipo de sonido pero de la anterior version igual gracias master?
 
Las versiones EXTENDED o extendidas contienen todas las escenas originales de la película sin omitir las eliminadas por asuntos de adaptarlas a los tiempos de las empresas de cines o por asuntos de clasificación para un tipo de público en particular, similar a las Ediciones del director (Director's Cut) o a las sin clasificación (UNRATED).

Espero te sea de ayuda :)
 
Volver