The Hobbit: An Unexpected Journey (2012) EXTENDED 3D H-SBS 1080p BDRip Audio Inglés [Subt. Esp] (Fantástico. Aventura. Acción)

Maestro Revolver

Well-known member
Miembro del Staff
Administrador
Registro
9 Ago 2012
Mensajes
3.567








TÍTULO ORIGINAL: The Hobbit: An Unexpected Journey
AÑO: 2012
DURACIÓN: 182 min.
PAÍS: USA
DIRECTOR: Peter Jackson
GUIÓN: Fran Walsh, Philippa Boyens, Peter Jackson, Guillermo del Toro (Novela: J.R.R. Tolkien)
REPARTO: Martin Freeman, Ian McKellen, Richard Armitage, James Nesbitt, Aidan Turner, Graham McTavish, Jed Brophy, Stephen Hunter, Ken Stott, John Callen, Adam Brown, Dean O'Gorman, William Kircher, Peter Hambleton, Mark Hadlow, Hugo Weaving, Andy Serkis, Sylvester McCoy, Cate Blanchett, Christopher Lee, Elijah Wood, Ian Holm, Barry Humphries, Jeffrey Thomas, Lee Pace, Conan Stevens, Bret McKenzie, Manu Bennett
PRODUCTORA: Co-producción USA-Nueva Zelanda; Warner Bros. Pictures / MGM / New Line Cinema / WingNut Films
GÉNERO: Fantástico. Aventuras. Acción | Precuela. Espada y brujería. Dragones. 3-D
: http://www.imdb.com/title/tt0903624/

PREMIOS: 2012: Oscars: Nominada a Maquillaje, Dirección Artística y Efectos Visuales
2012: Premios BAFTA: Nominada a Sonido, Efectos Visuales y Maquillaje/Peluquería
2012: Critics Choice Awards: 4 nominaciones técnicas






Precuela de la trilogía "El Señor de los Anillos", obra de J.R.R. Tolkien. En compañía del mago Gandalf y de trece enanos, el hobbit Bilbo Bolsón emprende un viaje a través del país de los elfos y los bosques de los trolls, desde las mazmorras de los orcos hasta la Montaña Solitaria, donde el dragón Smaug esconde el tesoro de los Enanos. Finalmente, en las profundidades de la Tierra, encuentra el Anillo Único, hipnótico objeto que será posteriormente causa de tantas sangrientas batallas en la Tierra Media.
























La pelicula NO tiene ninguna marca... solo colocamos el nombre de esta web en las capturas






Código:
General
Format                                   : Matroska
Format version                           : Version 3 / Version 2
File size                                : 16.9 GiB
Duration                                 : 3h 2mn
Overall bit rate                         : 13.3 Mbps
Movie name                               : www.club-hd.com
Encoded date                             : UTC 2013-11-22 00:01:45
Writing application                      : mkvmerge v5.7.0 ('The Whirlwind') built on Jul  8 2012 20:08:51
Writing library                          : libebml v1.2.3 + libmatroska v1.3.0

Video
ID                                       : 1
Format                                   : AVC
Format/Info                              : Advanced Video Codec
Format profile                           : High@L4.1
MultiView_Count                          : 2
MultiView_Layout                         : Side by Side (left eye first)
Format settings, CABAC                   : Yes
Format settings, ReFrames                : 4 frames
Codec ID                                 : V_MPEG4/ISO/AVC
Duration                                 : 3h 2mn
Bit rate                                 : 10.9 Mbps
Width                                    : 1 920 pixels
Height                                   : 1 080 pixels
Display aspect ratio                     : 16:9
Frame rate mode                          : Constant
Frame rate                               : 23.976 fps
Color space                              : YUV
Chroma subsampling                       : 4:2:0
Bit depth                                : 8 bits
Scan type                                : Progressive
Bits/(Pixel*Frame)                       : 0.218
Stream size                              : 13.9 GiB (82%)
Title                                    : www.club-hd.com
Language                                 : English
Default                                  : Yes
Forced                                   : No

Audio #1
ID                                       : 2
Format                                   : DTS
Format/Info                              : Digital Theater Systems
Mode                                     : 16
Format settings, Endianness              : Big
Codec ID                                 : A_DTS
Duration                                 : 3h 2mn
Bit rate mode                            : Constant
Bit rate                                 : 1 509 Kbps
Channel(s)                               : 6 channels
Channel positions                        : Front: L C R, Side: L R, LFE
Sampling rate                            : 48.0 KHz
Bit depth                                : 24 bits
Compression mode                         : Lossy
Delay relative to video                  : 11ms
Stream size                              : 1.93 GiB (11%)
Title                                    : DTS
Language                                 : English
Default                                  : Yes
Forced                                   : No

Audio #2
ID                                       : 3
Format                                   : AC-3
Format/Info                              : Audio Coding 3
Mode extension                           : CM (complete main)
Format settings, Endianness              : Big
Codec ID                                 : A_AC3
Duration                                 : 3h 2mn
Bit rate mode                            : Constant
Bit rate                                 : 640 Kbps
Channel(s)                               : 6 channels
Channel positions                        : Front: L C R, Side: L R, LFE
Sampling rate                            : 48.0 KHz
Bit depth                                : 16 bits
Compression mode                         : Lossy
Stream size                              : 836 MiB (5%)
Title                                    : AC3
Language                                 : English
Default                                  : No
Forced                                   : No

Text
ID                                       : 4
Format                                   : VobSub
Muxing mode                              : zlib
Codec ID                                 : S_VOBSUB
Codec ID/Info                            : The same subtitle format used on DVDs
Language                                 : Spanish
Default                                  : Yes
Forced                                   : No

Menu
00:00:00.000                             : en:Prologue: The Fall of Erebor
00:10:11.903                             : en:"In a Hole in the Ground There Lived a Hobbit"
00:14:08.723                             : en:Very Old Friends
00:17:27.255                             : en:Mr. Baggins
00:18:44.623                             : en:An Unexpected Party
00:23:16.604                             : en:"Blunt the Knives"
00:27:59.469                             : en:A Map, A Key and A Contract
00:36:04.871                             : en:"Misty Mountains"
00:41:17.266                             : en:"...The World Ahead"
00:46:30.830                             : en:The Battle of Azanulbizar
00:53:04.181                             : en:Radagast the Brown
00:58:07.651                             : en:Trollshaws
00:59:55.300                             : en:Roast Mutton
01:10:42.405                             : en:A Troll-hoard
01:15:01.831                             : en:The Hill of Sorcery
01:18:52.811                             : en:Warg-scouts
01:24:56.925                             : en:Rivendell
01:30:34.429                             : en:A Short Rest
01:34:10.603                             : en:Moon Runes
01:37:24.464                             : en:The Defiler
01:39:03.479                             : en:The Last Homely House
01:41:40.803                             : en:The White Council
01:50:22.533                             : en:"Why the Halfling?"
01:52:59.773                             : en:Over Hill
01:59:06.348                             : en:Under Hill
02:03:57.513                             : en:The Great Goblin
02:09:51.575                             : en:Riddles in the Dark
02:23:21.426                             : en:Biter and Beater
02:25:18.877                             : en:The Ring
02:26:31.199                             : en:Escape from Goblin Town
02:30:52.919                             : en:The Pity of Bilbo
02:33:00.546                             : en:"Home is Behind..."
02:35:52.593                             : en:Out of the Frying Pan...
02:46:51.210                             : en:A Good Omen
02:52:21.373                             : en:Credits








Enlaces de Mega y Google Drive solo disponibles para Miembros VIP

Compra tu Membresía VIP y apoya a Club-HD!

ATENCIÓN! Tenemos TODO el material de Club-HD disponible por Mega y Google Drive, enlaces 100% activos y online hasta la fecha

Llévate tus cuentas Mega PRO III gratis con tu membresía VIP!
Todos los posts vivos con links de Mega y Google Drive.
Todo el material de Club-HD desbloqueado y sin publicidad.

Click Aquí para más información.



Para ver este contenido oculto, debes dar click en una de las siguientes reacciones : Like Like, Love Love, Haha Haha, Wow Wow, Sad Sad, Angry Angry

 
Última edición por un moderador:

sharklui

Well-known member
Miembro VIP
Registro
28 Ago 2012
Mensajes
1.026
Ubicación
The Matrix
Excelente aporte, 17 gb de calidad pura al estilo Revol, voy a esperarla en Latino :bsrs: Muchisimas gracias Master !! :aplausos:
 

Usuarios Que Están Viendo Este Tema (Total: 1, Miembros: 0, Invitados: 1)

Quién Leyó Este Tema (Total Miembros: 1)

Arriba