The Holiday (2006) 720p BDRip Dual Latino-Inglés [Subt. Esp] (Romance. Comedia)

Maestro Revolver

Miembro del Staff
Administrador
Registro
9 Ago 2012
Mensajes
3.157








TÍTULO ORIGINAL: The Holiday
AÑO: 2006
DURACIÓN: 131 min.
PAÍS: USA
DIRECTOR: Nancy Meyers
GUIÓN: Nancy Meyers
REPARTO: Cameron Diaz, Kate Winslet, Jude Law, Jack Black, Eli Wallach, Rufus Sewell, Edward Burns, John Krasinski, Shannyn Sossamon, Miffy Englefield, Emma Pritchard, Sarah Parish, Alex O'Loughlin, Odette Yustman, James Franco, Lindsay Lohan, Dustin Hoffman
PRODUCTORA: Columbia Pictures / Universal Pictures
GÉNERO: Romance. Comedia | Comedia romántica. Navidad
: http://www.imdb.com/title/tt0457939/






Amanda Woods (Cameron Diaz), una chica americana que posee una próspera agencia de publicidad especializada en trailers de películas, vive en el sur de California y acaba de romper con su novio (Edward Burns). Por su parte, Iris Simpkins (Kate Winslet), redactora de la popular columna de bodas para el London Daily Telegraph, vive en una encantadora casa de campo en Inglaterra y sus relaciones con los hombres tampoco son fáciles. A través de Internet llegan a un acuerdo para intercambiarse sus respectivas viviendas durante las Navidades.
























La pelicula NO tiene ninguna marca... solo colocamos el nombre de esta web en las capturas






Código:
General
Format                                   : Matroska
Format version                           : Version 2
File size                                : 4.74 GiB
Duration                                 : 2h 15mn
Overall bit rate                         : 4 995 Kbps
Movie name                               : www.club-hd.com
Encoded date                             : UTC 2013-12-13 03:04:51
Writing application                      : mkvmerge v5.7.0 ('The Whirlwind') built on Jul  8 2012 20:08:51
Writing library                          : libebml v1.2.3 + libmatroska v1.3.0

Video
ID                                       : 1
Format                                   : AVC
Format/Info                              : Advanced Video Codec
Format profile                           : High@L4.1
Format settings, CABAC                   : Yes
Format settings, ReFrames                : 9 frames
Codec ID                                 : V_MPEG4/ISO/AVC
Duration                                 : 2h 15mn
Bit rate                                 : 3 970 Kbps
Width                                    : 1 280 pixels
Height                                   : 694 pixels
Display aspect ratio                     : 1.85:1
Frame rate mode                          : Constant
Frame rate                               : 23.976 fps
Color space                              : YUV
Chroma subsampling                       : 4:2:0
Bit depth                                : 8 bits
Scan type                                : Progressive
Bits/(Pixel*Frame)                       : 0.186
Stream size                              : 3.67 GiB (78%)
Title                                    : www.club-hd.com
Writing library                          : x264 core 104 r1688 0b36c6d
Language                                 : English
Default                                  : Yes
Forced                                   : No

Audio #1
ID                                       : 2
Format                                   : AC-3
Format/Info                              : Audio Coding 3
Mode extension                           : CM (complete main)
Format settings, Endianness              : Big
Codec ID                                 : A_AC3
Duration                                 : 2h 15mn
Bit rate mode                            : Constant
Bit rate                                 : 384 Kbps
Channel(s)                               : 6 channels
Channel positions                        : Front: L C R, Side: L R, LFE
Sampling rate                            : 48.0 KHz
Bit depth                                : 16 bits
Compression mode                         : Lossy
Delay relative to video                  : 1s 0ms
Stream size                              : 373 MiB (8%)
Title                                    : www.club-hd.com  >>  Latino
Language                                 : Spanish
Default                                  : Yes
Forced                                   : No

Audio #2
ID                                       : 3
Format                                   : AC-3
Format/Info                              : Audio Coding 3
Mode extension                           : CM (complete main)
Format settings, Endianness              : Big
Codec ID                                 : A_AC3
Duration                                 : 2h 15mn
Bit rate mode                            : Constant
Bit rate                                 : 640 Kbps
Channel(s)                               : 6 channels
Channel positions                        : Front: L C R, Side: L R, LFE
Sampling rate                            : 48.0 KHz
Bit depth                                : 16 bits
Compression mode                         : Lossy
Stream size                              : 622 MiB (13%)
Title                                    : www.club-hd.com  >>  Inglés
Language                                 : English
Default                                  : No
Forced                                   : No

Text
ID                                       : 4
Format                                   : UTF-8
Codec ID                                 : S_TEXT/UTF8
Codec ID/Info                            : UTF-8 Plain Text
Language                                 : Spanish
Default                                  : No
Forced                                   : No

Menu
00:00:00.000                             : :00:00:00.000
00:05:44.344                             : :00:05:44.344
00:09:46.211                             : :00:09:46.211
00:10:53.403                             : :00:10:53.403
00:16:00.126                             : :00:16:00.126
00:18:25.938                             : :00:18:25.938
00:24:11.283                             : :00:24:11.283
00:28:27.080                             : :00:28:27.080
00:33:07.402                             : :00:33:07.402
00:38:45.782                             : :00:38:45.782
00:48:01.837                             : :00:48:01.837
00:52:26.685                             : :00:52:26.685
00:55:58.272                             : :00:55:58.272
01:00:03.725                             : :01:00:03.725
01:02:28.286                             : :01:02:28.286
01:08:59.677                             : :01:08:59.677
01:11:42.632                             : :01:11:42.632
01:15:51.005                             : :01:15:51.005
01:20:11.515                             : :01:20:11.515
01:22:13.095                             : :01:22:13.095
01:24:50.544                             : :01:24:50.544
01:28:10.744                             : :01:28:10.744
01:31:30.151                             : :01:31:30.151
01:33:54.629                             : :01:33:54.629
01:36:25.822                             : :01:36:25.822
01:41:07.937                             : :01:41:07.937
01:49:10.377                             : :01:49:10.377
02:02:41.813                             : :02:02:41.813








Enlaces de Mega y Google Drive solo disponibles para Miembros VIP

Compra tu Membresía VIP y apoya a Club-HD!

ATENCIÓN! Tenemos TODO el material de Club-HD disponible por Mega y Google Drive, enlaces 100% activos y online hasta la fecha

Llévate tus cuentas Mega PRO III gratis con tu membresía VIP!
Todos los posts vivos con links de Mega y Google Drive.
Todo el material de Club-HD desbloqueado y sin publicidad.

Click Aquí para más información.

Enlaces de Mega y Google Drive solo disponibles para Miembros VIP

Compra tu Membresía VIP y apoya a Club-HD!

ATENCIÓN! Tenemos TODO el material de Club-HD disponible por Mega y Google Drive, enlaces 100% activos y online hasta la fecha

Llévate tus cuentas Mega PRO III gratis con tu membresía VIP!
Todos los posts vivos con links de Mega y Google Drive.
Todo el material de Club-HD desbloqueado y sin publicidad.

Click Aquí para más información.



Para ver este contenido oculto, debes dar click en una de las siguientes reacciones : Like Like, Love Love, Haha Haha, Wow Wow, Sad Sad, Angry Angry



Para ver este contenido oculto, debes dar click en una de las siguientes reacciones : Like Like, Love Love, Haha Haha, Wow Wow, Sad Sad, Angry Angry



Para ver este contenido oculto, debes dar click en una de las siguientes reacciones : Like Like, Love Love, Haha Haha, Wow Wow, Sad Sad, Angry Angry
CONTRASEÑA

Código:
www.club-hd.com
 
Última edición:
Registro
31 Ago 2012
Mensajes
893
Edad
36
Gracias Men Excelente Aporte :aplausos: :aplausos: Tb_up3 Tb_up3 :dplgar: :dplgar: Tb_up3 Desc_g_ Tb_up3 :dplgar: :dplgar: Tb_up3 Tb_up3 :aplausos: :aplausos:
 

Usuarios Que Están Viendo Este Tema (Total: 1, Miembros: 0, Invitados: 1)

Quién Leyó Este Tema (Total Miembros: 4)

Arriba