The Host (2013) 720p BDRip Dual Latino-Inglés [Subt. Esp] (Ciencia ficción. Thriller)

Maestro Revolver

Administrador
Registro
9 Ago 2012
Mensajes
3.157
Reacciones (ptje)
55.166


The-Host.jpg




FichaTecnica.jpg


TÍTULO ORIGINAL: The Host
AÑO: 2013
DURACIÓN: 125 min.
PAÍS: USA
DIRECTOR: Andrew Niccol
GUIÓN: Andrew Niccol (Novela: Stephenie Meyer)
REPARTO: Saoirse Ronan, Max Irons, Diane Kruger, William Hurt, Jake Abel, Frances Fisher, Chandler Canterbury, Boyd Holbrook
PRODUCTORA: Open Road Films / Chockstone Pictures / Nick Wechsler Productions
GÉNERO: Ciencia ficción. Thriller. Romance | Extraterrestres
imdb-logo.png
: http://www.imdb.com/title/tt1517260/




Sinopsis.jpg


La Tierra ha sido invadida por unos seres que se alojan en el cuerpo de los hombres y controlan sus mentes. Para Wanderer, la criatura que habita el cuerpo de Melanie, no es fácil acostumbrarse a soportar emociones, sentimientos y recuerdos demasiado intensos, pero la principal dificultad consiste en que Melanie lucha por conservar el control de su mente llenándola con recuerdos de Jared, el hombre que ama. La intensidad de estos sentimientos domina hasta tal punto a Wanderer que acaba deseando a un hombre al que jamás ha visto. Una serie de circunstancias, hacen que ambas, muy a su pesar, se alíen y partan en busca del hombre amado. Adaptación de la novela de Stephenie Meyer, autora de la saga de "Crepúsculo" -Twilight-.




Trailer.jpg






Capturas.jpg


1.jpg


2.jpg


3.jpg


4.jpg


5.jpg


6.jpg


La pelicula NO tiene ninguna marca... solo colocamos el nombre de esta web en las capturas




MediaInfo.jpg


Código:
General
Format                                   : Matroska
Format version                           : Version 2
File size                                : 2.80 GiB
Duration                                 : 2h 5mn
Overall bit rate                         : 3 193 Kbps
Movie name                               : www.club-hd.com
Encoded date                             : UTC 2013-09-29 03:54:40
Writing application                      : mkvmerge v5.7.0 ('The Whirlwind') built on Jul  8 2012 20:08:51
Writing library                          : libebml v1.2.3 + libmatroska v1.3.0

Video
ID                                       : 1
Format                                   : AVC
Format/Info                              : Advanced Video Codec
Format profile                           : [email protected]
Format settings, CABAC                   : Yes
Format settings, ReFrames                : 6 frames
Codec ID                                 : V_MPEG4/ISO/AVC
Duration                                 : 2h 5mn
Bit rate                                 : 2 298 Kbps
Width                                    : 1 280 pixels
Height                                   : 534 pixels
Display aspect ratio                     : 2.40:1
Frame rate mode                          : Constant
Frame rate                               : 23.976 fps
Color space                              : YUV
Chroma subsampling                       : 4:2:0
Bit depth                                : 8 bits
Scan type                                : Progressive
Bits/(Pixel*Frame)                       : 0.140
Stream size                              : 2.02 GiB (72%)
Title                                    : www.club-hd.com
Writing library                          : x264 core 133 r2334 a3ac64b
Language                                 : English
Default                                  : Yes
Forced                                   : No

Audio #1
ID                                       : 2
Format                                   : AC-3
Format/Info                              : Audio Coding 3
Mode extension                           : CM (complete main)
Format settings, Endianness              : Big
Codec ID                                 : A_AC3
Duration                                 : 2h 5mn
Bit rate mode                            : Constant
Bit rate                                 : 192 Kbps
Channel(s)                               : 2 channels
Channel positions                        : Front: L R
Sampling rate                            : 48.0 KHz
Bit depth                                : 16 bits
Compression mode                         : Lossy
Stream size                              : 173 MiB (6%)
Title                                    : www.club-hd.com  >>  Latino
Language                                 : Spanish
Default                                  : Yes
Forced                                   : No

Audio #2
ID                                       : 3
Format                                   : AC-3
Format/Info                              : Audio Coding 3
Mode extension                           : CM (complete main)
Format settings, Endianness              : Big
Codec ID                                 : A_AC3
Duration                                 : 2h 5mn
Bit rate mode                            : Constant
Bit rate                                 : 640 Kbps
Channel(s)                               : 6 channels
Channel positions                        : Front: L C R, Side: L R, LFE
Sampling rate                            : 48.0 KHz
Bit depth                                : 16 bits
Compression mode                         : Lossy
Stream size                              : 575 MiB (20%)
Title                                    : www.club-hd.com  >>  Inglés
Language                                 : English
Default                                  : No
Forced                                   : No

Text
ID                                       : 4
Format                                   : UTF-8
Codec ID                                 : S_TEXT/UTF8
Codec ID/Info                            : UTF-8 Plain Text
Language                                 : Spanish
Default                                  : No
Forced                                   : No

Menu
00:00:00.000                             : en:00:00:00.000
00:06:03.530                             : en:00:06:03.530
00:12:12.398                             : en:00:12:12.398
00:20:29.770                             : en:00:20:29.770
00:25:19.727                             : en:00:25:19.727
00:31:01.234                             : en:00:31:01.234
00:35:37.135                             : en:00:35:37.135
00:40:02.317                             : en:00:40:02.317
00:45:39.153                             : en:00:45:39.153
00:51:08.482                             : en:00:51:08.482
00:55:26.198                             : en:00:55:26.198
01:03:49.951                             : en:01:03:49.951
01:13:51.761                             : en:01:13:51.761
01:18:54.355                             : en:01:18:54.355
01:27:54.144                             : en:01:27:54.144
01:32:36.468                             : en:01:32:36.468
01:37:53.284                             : en:01:37:53.284
01:46:51.697                             : en:01:46:51.697
01:52:23.528                             : en:01:52:23.528
01:57:30.669                             : en:01:57:30.669




Descarga.jpg



MEGA.jpg

Tenemos TODO el material de Club-HD disponible por Mega, enlaces 100% activos y online hasta la fecha

Llévate tus cuentas Mega PRO III gratis con tu membresía VIP!
Todos los posts vivos con links de Mega.
Todo el material de Club-HD desbloqueado y sin publicidad.

Obtén más información sobre nuestras Membresías VIP



UPLOADED_BANNER.png

Para ver este contenido oculto, debes dar click en el botón"Like", o cualquiera de las otras reacciones:

Me Gusta Me Gusta, Me Encanta Me Encanta, Jaja Jaja, Wow Wow, Triste Triste, Molesto Molesto
 
Última edición por un moderador:
Desc_g_

Me la recomendaron a ver que tal, a mi no me convence mucho por ser el guion de "Stephenie Meyer" la misma que escribió las de Crepusculo S_T1 pero como dije me la recomendaron :p... Espero no me falle :S

Gracias!!!

Saludos :D
 
Volver