The Iceman (2012) 720p BDRip Audio Inglés [Subt. Esp] (Thriller)

Maestro Revolver

Well-known member
Miembro del Staff
Administrador
Registro
9 Ago 2012
Mensajes
3.567








TÍTULO ORIGINAL: The Iceman
AÑO: 2012
DURACIÓN: 106 min.
PAÍS: USA
DIRECTOR: Ariel Vromen
GUIÓN: Ariel Vromen, Morgan Land (Novela: Anthony Bruno)
REPARTO: Michael Shannon, Winona Ryder, Ray Liotta, David Schwimmer, Chris Evans, Elias Koteas, Stephen Dorff, James Franco, Robert Davi, Olga Fonda, Christa Campbell, Ryan O'Nan, Weronika Rosati, Danny A. Abeckaser, Ori Pfeffer, Brian Kinney
PRODUCTORA: Bleiberg Entertainment / Millennium Films / Nu Image
GÉNERO: Thriller | Crimen. Mafia. Asesinos en serie. Basado en hechos reales. Años 60. Años 70
: http://www.imdb.com/title/tt1491044/

Premios: 2012: Festival de Venecia: Sección oficial de largometrajes (fuera de competición)






Richard Kuklinski, un asesino a sueldo y amante hombre de familia. Kuklinski ganó su apodo por la congelación de los órganos de sus víctimas, durante el momento de la muerte y así creando falsas pistas a la policía. Era un hombre con gran tendencia violenta pero el desapego a las consecuencias le ayudó a crear una vida familiar idílica. Su familia y vecinos creían que era un hombre de negocios, sin tener idea de su alternativa vida. Kuklinski mató a más de un centenar de personas durante su vida, sin sentir jamás remordimientos por lo que había hecho, excepto si afectaba a su familia.
























La pelicula NO tiene ninguna marca... solo colocamos el nombre de esta web en las capturas






Código:
General
Format                                   : Matroska
Format version                           : Version 2
File size                                : 4.37 GiB
Duration                                 : 1h 45mn
Overall bit rate                         : 5 931 Kbps
Movie name                               : www.club-hd.com
Encoded date                             : UTC 2013-08-12 22:09:56
Writing application                      : mkvmerge v5.7.0 ('The Whirlwind') built on Jul  8 2012 20:08:51
Writing library                          : libebml v1.2.3 + libmatroska v1.3.0

Video
ID                                       : 1
Format                                   : AVC
Format/Info                              : Advanced Video Codec
Format profile                           : High@L4.1
Format settings, CABAC                   : Yes
Format settings, ReFrames                : 5 frames
Codec ID                                 : V_MPEG4/ISO/AVC
Duration                                 : 1h 45mn
Bit rate                                 : 5 289 Kbps
Width                                    : 1 280 pixels
Height                                   : 720 pixels
Display aspect ratio                     : 16:9
Frame rate mode                          : Constant
Frame rate                               : 23.976 fps
Color space                              : YUV
Chroma subsampling                       : 4:2:0
Bit depth                                : 8 bits
Scan type                                : Progressive
Bits/(Pixel*Frame)                       : 0.239
Stream size                              : 3.81 GiB (87%)
Title                                    : www.club-hd.com
Writing library                          : x264 core 133 r2334 a3ac64b
Language                                 : English
Default                                  : Yes
Forced                                   : No

Audio
ID                                       : 2
Format                                   : AC-3
Format/Info                              : Audio Coding 3
Mode extension                           : CM (complete main)
Format settings, Endianness              : Big
Codec ID                                 : A_AC3
Duration                                 : 1h 45mn
Bit rate mode                            : Constant
Bit rate                                 : 640 Kbps
Channel(s)                               : 6 channels
Channel positions                        : Front: L C R, Side: L R, LFE
Sampling rate                            : 48.0 KHz
Bit depth                                : 16 bits
Compression mode                         : Lossy
Stream size                              : 483 MiB (11%)
Title                                    : www.club-hd.com
Language                                 : English
Default                                  : Yes
Forced                                   : No

Text
ID                                       : 3
Format                                   : UTF-8
Codec ID                                 : S_TEXT/UTF8
Codec ID/Info                            : UTF-8 Plain Text
Title                                    : www.club-hd.com
Language                                 : Spanish
Default                                  : Yes
Forced                                   : No

Menu
00:00:00.000                             : en:00:00:00.000
00:08:11.491                             : en:00:08:11.491
00:17:14.575                             : en:00:17:14.575
00:24:57.830                             : en:00:24:57.830
00:35:08.273                             : en:00:35:08.273
00:45:57.630                             : en:00:45:57.630
00:56:20.377                             : en:00:56:20.377
01:04:05.425                             : en:01:04:05.425
01:13:03.588                             : en:01:13:03.588
01:19:42.569                             : en:01:19:42.569
01:31:17.055                             : en:01:31:17.055
01:39:52.403                             : en:01:39:52.403








Enlaces de Mega y Google Drive solo disponibles para Miembros VIP

Compra tu Membresía VIP y apoya a Club-HD!

ATENCIÓN! Tenemos TODO el material de Club-HD disponible por Mega y Google Drive, enlaces 100% activos y online hasta la fecha

Llévate tus cuentas Mega PRO III gratis con tu membresía VIP!
Todos los posts vivos con links de Mega y Google Drive.
Todo el material de Club-HD desbloqueado y sin publicidad.

Click Aquí para más información.


Para ver este contenido oculto, debes dar click en una de las siguientes reacciones : Like Like, Love Love, Haha Haha, Wow Wow, Sad Sad, Angry Angry



 
Última edición por un moderador:

Usuarios Que Están Viendo Este Tema (Total: 1, Miembros: 0, Invitados: 1)

Quién Leyó Este Tema (Total Miembros: 2)

Arriba