The Illusionist (2006) 1080p BDRip Dual Latino-Inglés [Subt. Esp] (Intriga. Drama)

Maestro Revolver

Administrador
Registro
9 Ago 2012
Mensajes
3.157
Reacciones (ptje)
55.034


The-Illusionist-1080p.jpg




FichaTecnica.jpg


TÍTULO ORIGINAL: The Illusionist
AÑO: 2006
DURACIÓN: 110 min.
PAÍS: USA
DIRECTOR: Neil Burger
GUIÓN: Neil Burger (Historia: Steven Millhauser)
REPARTO: Edward Norton, Paul Giamatti, Jessica Biel, Rufus Sewell, Eddie Marsan, Jake Wood, Tom Fisher, Aaron Johnson, Eleanor Tomlinson
PRODUCTORA: Yari Film Group / Bob Yari Productions / Contagious Entertainment / Michael London Productions / Stillking Films
GÉNERO: Intriga. Drama | Drama de época. Magia. Años 1900 (circa)
imdb-logo.png
: http://www.imdb.com/title/tt0443543/

PREMIOS: 2006: Nominada al Oscar: Mejor fotografía
2006: Critics' Choice Awards: Mejor compositor (Phillip Glass)
2006: National Board of Review (NBR): Top películas independientes del año




Sinopsis.jpg


En la Viena de 1900, el misterioso Eisenheim (Edward Norton) cautiva al público con sus espectáculos de magia e ilusionismo. Sus poderes sobrenaturales llegan a oídos del príncipe heredero Leopold (Rufus Sewell), un hombre escéptico que acude al espectáculo acompañado de su prometida, la bella y sofisticada Sophie (Jessica Biel). Sospechando un fraude por parte de Eisenheim, el príncipe encarga al perspicaz inspector de policía Uhl (Paul Giamatti) que lo vigile de cerca.




Trailer.jpg






Capturas.jpg


1.jpg


2.jpg


3.jpg


4.jpg


5.jpg


6.jpg


La pelicula NO tiene ninguna marca... solo colocamos el nombre de esta web en las capturas




MediaInfo.jpg


Código:
General
Format                                   : Matroska
Format version                           : Version 2
File size                                : 10.0 GiB
Duration                                 : 1h 48mn
Overall bit rate                         : 13.2 Mbps
Movie name                               : www.club-hd.com
Encoded date                             : UTC 2013-04-01 22:52:48
Writing application                      : mkvmerge v5.7.0 ('The Whirlwind') built on Jul  8 2012 20:08:51
Writing library                          : libebml v1.2.3 + libmatroska v1.3.0

Video
ID                                       : 1
Format                                   : AVC
Format/Info                              : Advanced Video Codec
Format profile                           : [email protected]
Format settings, CABAC                   : Yes
Format settings, ReFrames                : 4 frames
Format settings, GOP                     : N=1
Codec ID                                 : V_MPEG4/ISO/AVC
Duration                                 : 1h 48mn
Bit rate                                 : 10.8 Mbps
Width                                    : 1 920 pixels
Height                                   : 1 040 pixels
Display aspect ratio                     : 1.85:1
Frame rate mode                          : Constant
Frame rate                               : 23.976 fps
Color space                              : YUV
Chroma subsampling                       : 4:2:0
Bit depth                                : 8 bits
Scan type                                : Progressive
Bits/(Pixel*Frame)                       : 0.226
Stream size                              : 8.05 GiB (80%)
Title                                    : www.club-hd.com
Writing library                          : x264 core 68 r1183M f21daff
Language                                 : English
Default                                  : Yes
Forced                                   : No

Audio #1
ID                                       : 2
Format                                   : AC-3
Format/Info                              : Audio Coding 3
Mode extension                           : CM (complete main)
Format settings, Endianness              : Big
Codec ID                                 : A_AC3
Duration                                 : 1h 48mn
Bit rate mode                            : Constant
Bit rate                                 : 192 Kbps
Channel(s)                               : 2 channels
Channel positions                        : Front: L R
Sampling rate                            : 48.0 KHz
Bit depth                                : 16 bits
Compression mode                         : Lossy
Stream size                              : 150 MiB (1%)
Title                                    : www.club-hd.com  >>  Latino AC3 2.0
Language                                 : Spanish
Default                                  : Yes
Forced                                   : No

Audio #2
ID                                       : 3
Format                                   : AC-3
Format/Info                              : Audio Coding 3
Mode extension                           : CM (complete main)
Format settings, Endianness              : Big
Codec ID                                 : A_AC3
Duration                                 : 1h 48mn
Bit rate mode                            : Constant
Bit rate                                 : 640 Kbps
Channel(s)                               : 6 channels
Channel positions                        : Front: L C R, Side: L R, LFE
Sampling rate                            : 48.0 KHz
Bit depth                                : 16 bits
Compression mode                         : Lossy
Stream size                              : 499 MiB (5%)
Title                                    : www.club-hd.com  >>  Inglés AC3 5.1
Language                                 : English
Default                                  : No
Forced                                   : No

Audio #3
ID                                       : 4
Format                                   : DTS
Format/Info                              : Digital Theater Systems
Mode                                     : 16
Format settings, Endianness              : Big
Codec ID                                 : A_DTS
Duration                                 : 1h 48mn
Bit rate mode                            : Constant
Bit rate                                 : 1 509 Kbps
Channel(s)                               : 6 channels
Channel positions                        : Front: L C R, Side: L R, LFE
Sampling rate                            : 48.0 KHz
Bit depth                                : 16 bits
Compression mode                         : Lossy
Stream size                              : 1.15 GiB (11%)
Title                                    : www.club-hd.com  >>  Inglés DTS 5.1
Language                                 : English
Default                                  : No
Forced                                   : No

Text
ID                                       : 5
Format                                   : UTF-8
Codec ID                                 : S_TEXT/UTF8
Codec ID/Info                            : UTF-8 Plain Text
Language                                 : Spanish
Default                                  : No
Forced                                   : No




Descarga.jpg



MEGA.jpg

Tenemos TODO el material de Club-HD disponible por Mega, enlaces 100% activos y online hasta la fecha

Llévate tus cuentas Mega PRO III gratis con tu membresía VIP!
Todos los posts vivos con links de Mega.
Todo el material de Club-HD desbloqueado y sin publicidad.

Obtén más información sobre nuestras Membresías VIP



UPLOADED_BANNER.png

Para ver este contenido oculto, debes dar click en el botón"Like", o cualquiera de las otras reacciones:

Me Gusta Me Gusta, Me Encanta Me Encanta, Jaja Jaja, Wow Wow, Triste Triste, Molesto Molesto
 
Última edición por un moderador:
otro pedido cumplido y en una excelente calidad, revolver andas con todo
 
Una excelente... Una mega super hiper fabulosa y fantástica película!!! Te merecés los laureles Revo!!!! :dplgar::aplausos: Muchísimas gracias por cumplir el pedido!!! :llrnd2: Saludos pibe bye
 
Muchas gracias R21, espero que la subas en 720p...:dplgar::LXR::LXR:yahoo
 
Creo que la historia en si es mágica pues logra capturarte en el drama y la fantasía. Gracias.
 
Volver