The Impossible (2012) 1080p BDRip Dual Latino-Inglés [Subt. Esp-Ing] (Drama)

Maestro Revolver

Well-known member
Miembro del Staff
Administrador
Registro
9 Ago 2012
Mensajes
3.569
Reacciones
59.341
Puntos
113

Reputation:









TÍTULO ORIGINAL: The Impossible
AÑO: 2012
DURACIÓN: 107 min.
PAÍS: España
DIRECTOR: Juan Antonio Bayona
GUIÓN: Sergio G. Sánchez
REPARTO: Naomi Watts, Ewan McGregor, Tom Holland, Geraldine Chaplin, Oaklee Pendergast, Samuel Joslin, Dominic Power, Sönke Möhring, Olivia Jackson, Natalie Lorence, Nicola Harrison, Bruce Blain, Johan Sundberg, Teo Quintavalle, Jan Roland Sundberg, Marta Etura
PRODUCTORA: Apaches Entertainment / Telecinco Cinema / Mediaset España / Canal+ España / IVAC / ICAA
GÉNERO: Drama | Basado en hechos reales. Catástrofes. Familia. Supervivencia
: http://www.imdb.es/title/tt1649419/

PREMIOS: 2012: Oscars: Nominada a mejor actriz (Naomi Watts)
2012: Globos de Oro: nominada a mejor actriz drama (Naomi Watts)
2012: Premios Goya: 14 nominaciones, incluyendo Mejor película y director
2012: Critics Choice Awards: Nominada a mejor actriz (Watts) e intérprete joven (Holland)
2012: National Board of Review (NBR): Mejor actor revelación (Tom Holland)
2012: 6 Premios Gaudí, incluyendo mejor director, fotografía y mejor película europea






Diciembre del año 2004. María (Naomi Watts), Henry (Ewan McGregor) y sus tres hijos pequeños vuelan desde Japón a Tailandia para pasar sus vacaciones de Navidad descansando en la playa. Una mañana, mientras se encuentran todos en la piscina del complejo a orillas del mar, un tremendo tsunami destroza el hotel al mismo tiempo que gran parte de la costa del sudeste asiático. Las vidas de millones de personas cambiaron para siempre. Esta es la historia de esta familia...


























La pelicula NO tiene ninguna marca... solo colocamos el nombre de esta web en las capturas






Código:
General
Format                                   : Matroska
Format version                           : Version 2
File size                                : 11.9 GiB
Duration                                 : 1h 53mn
Overall bit rate                         : 15.0 Mbps
Movie name                               : www.club-hd.com
Encoded date                             : UTC 2013-04-12 02:18:57
Writing application                      : mkvmerge v5.7.0 ('The Whirlwind') built on Jul  8 2012 20:08:51
Writing library                          : libebml v1.2.3 + libmatroska v1.3.0
Attachment                               : Yes

Video
ID                                       : 1
Format                                   : AVC
Format/Info                              : Advanced Video Codec
Format profile                           : High@L4.1
Format settings, CABAC                   : Yes
Format settings, ReFrames                : 5 frames
Codec ID                                 : V_MPEG4/ISO/AVC
Duration                                 : 1h 53mn
Bit rate                                 : 11.9 Mbps
Nominal bit rate                         : 12.8 Mbps
Width                                    : 1 920 pixels
Height                                   : 812 pixels
Display aspect ratio                     : 2.35:1
Frame rate mode                          : Constant
Frame rate                               : 24.000 fps
Color space                              : YUV
Chroma subsampling                       : 4:2:0
Bit depth                                : 8 bits
Scan type                                : Progressive
Bits/(Pixel*Frame)                       : 0.317
Stream size                              : 9.42 GiB (79%)
Title                                    : www.club-hd.com
Writing library                          : x264 core 129 r2230 1cffe9f
Language                                 : English
Default                                  : Yes
Forced                                   : No

Audio #1
ID                                       : 2
Format                                   : AC-3
Format/Info                              : Audio Coding 3
Mode extension                           : CM (complete main)
Format settings, Endianness              : Big
Codec ID                                 : A_AC3
Duration                                 : 1h 53mn
Bit rate mode                            : Constant
Bit rate                                 : 640 Kbps
Channel(s)                               : 6 channels
Channel positions                        : Front: L C R, Side: L R, LFE
Sampling rate                            : 48.0 KHz
Bit depth                                : 16 bits
Compression mode                         : Lossy
Stream size                              : 520 MiB (4%)
Title                                    : www.club-hd.com  >>  Latino AC3 5.1
Language                                 : Spanish
Default                                  : Yes
Forced                                   : No

Audio #2
ID                                       : 3
Format                                   : AC-3
Format/Info                              : Audio Coding 3
Mode extension                           : CM (complete main)
Format settings, Endianness              : Big
Codec ID                                 : A_AC3
Duration                                 : 1h 53mn
Bit rate mode                            : Constant
Bit rate                                 : 640 Kbps
Channel(s)                               : 6 channels
Channel positions                        : Front: L C R, Side: L R, LFE
Sampling rate                            : 48.0 KHz
Bit depth                                : 16 bits
Compression mode                         : Lossy
Stream size                              : 520 MiB (4%)
Title                                    : www.club-hd.com  >>  Inglés AC3 5.1
Language                                 : English
Default                                  : No
Forced                                   : No

Audio #3
ID                                       : 4
Format                                   : DTS
Format/Info                              : Digital Theater Systems
Mode                                     : 16
Format settings, Endianness              : Big
Codec ID                                 : A_DTS
Duration                                 : 1h 53mn
Bit rate mode                            : Constant
Bit rate                                 : 1 509 Kbps
Channel(s)                               : 6 channels
Channel positions                        : Front: L C R, Side: L R, LFE
Sampling rate                            : 48.0 KHz
Bit depth                                : 24 bits
Compression mode                         : Lossy
Stream size                              : 1.20 GiB (10%)
Title                                    : www.club-hd.com  >>  Inglés DTS 5.1
Language                                 : English
Default                                  : No
Forced                                   : No

Text #1
ID                                       : 5
Format                                   : UTF-8
Codec ID                                 : S_TEXT/UTF8
Codec ID/Info                            : UTF-8 Plain Text
Language                                 : Spanish
Default                                  : No
Forced                                   : No

Text #2
ID                                       : 6
Format                                   : UTF-8
Codec ID                                 : S_TEXT/UTF8
Codec ID/Info                            : UTF-8 Plain Text
Language                                 : English
Default                                  : No
Forced                                   : No

Menu
00:00:00.000                             : en:00:00:00.000
00:07:10.292                             : en:00:07:10.292
00:12:50.875                             : en:00:12:50.875
00:21:20.250                             : en:00:21:20.250
00:27:02.625                             : en:00:27:02.625
00:31:59.083                             : en:00:31:59.083
00:38:13.792                             : en:00:38:13.792
00:44:35.833                             : en:00:44:35.833
00:51:09.125                             : en:00:51:09.125
00:56:24.042                             : en:00:56:24.042
01:03:24.583                             : en:01:03:24.583
01:10:14.500                             : en:01:10:14.500
01:15:27.292                             : en:01:15:27.292
01:23:51.083                             : en:01:23:51.083
01:36:00.500                             : en:01:36:00.500








Enlaces de Mega y Fireload solo disponibles para Miembros VIP

Compra tu Membresía VIP y apoya a Club-HD!

ATENCIÓN! Tenemos TODO el material de Club-HD disponible por Mega y Fireload, enlaces 100% activos y online hasta la fecha

Llévate tus cuentas Mega PRO II gratis con tu membresía VIP!
Todos los posts vivos con links de Mega y Fireload.
Todo el material de Club-HD desbloqueado y sin publicidad.

Click Aquí para más información.



Para ver este contenido oculto, debes dar click en una de las siguientes reacciones : Like Like, Love Love, Haha Haha, Wow Wow, Sad Sad, Angry Angry

 
Última edición por un moderador:

Ezze

Well-known member
Miembro del Staff
Súper Moderador
Registro
28 Ago 2012
Mensajes
1.663
Reacciones
1.790
Puntos
113
Ubicación
En la Torre de Observación

Reputation:

Wow!!! :aplausos: La estaba esperando en 1080!! xD Muchas gracias Revolver!! :aplausos::aplausos: Una gran historia.... Saludos bye
 

n0e_Cg

New member
Registro
28 Ago 2012
Mensajes
537
Reacciones
42
Puntos
0
Edad
34

Reputation:

Excelente Aporte muy esperada la verdad, muxas gracias amig0
 

zacygal

Well-known member
Registro
3 Sep 2012
Mensajes
1.515
Reacciones
1.536
Puntos
113
Edad
49

Reputation:

Muy buena pela ...
Esperando en 720
 

Usuarios Que Están Viendo Este Tema (Total: 1, Miembros: 0, Invitados: 1)

Arriba