• Buenos dias amigos del club. Les queremos avisar que ya recuperamos el acceso a las webs de las Membresías VIP y del Paste. Asi que ya pueden comprar sus membresías y descargar todos los estrenos nuevamente.

The Infallibles (2024) 1080p AMZN WEB-DL Latino (Comedia)

LuchoO

責任者

Moderador
Uploader
Registro
15 Ago 2015
Mensajes
1.983
Reacciones (ptje)
29.687

cover.png



SINOPSIS.PNG



Alia explosiva y Hugo meticuloso lideran una investigación para detener a una banda de atracadores que siembra el caos en París y avergüenza a la policía, por orden del Ministro del Interior.





TRAILER.PNG



CAPTURAS.PNG


i.0001.jpeg


i.0002.jpeg


i.0003.jpeg


i.0004.jpeg



MEDIAINFO.PNG

General
Complete name : The Infallibles 2024 AMZN WEB-DL 1080p H264 Dual.mkv
Format : Matroska
Format version : Version 4
File size : 7.20 GiB
Duration : 1 h 39 min
Overall bit rate : 10.4 Mb/s
Frame rate : 24.000 FPS
Movie name : [Club-HD] The Infallibles 2024 AMZN WEB-DL 1080p H264 Dual.mkv
Encoded date : 2024-06-20 14:46:19 UTC
Writing application : mkvmerge v77.0 ('Elemental') 64-bit
Writing library : libebml v1.4.4 + libmatroska v1.7.1

Video
ID : 1
Format : AVC
Format/Info : Advanced Video Codec
Format profile : High@L4
Format settings : CABAC / 4 Ref Frames
Format settings, CABAC : Yes
Format settings, Reference frames : 4 frames
Codec ID : V_MPEG4/ISO/AVC
Duration : 1 h 39 min
Bit rate mode : Constant
Bit rate : 9 120 kb/s
Nominal bit rate : 10 000 kb/s
Width : 1 920 pixels
Height : 960 pixels
Display aspect ratio : 2.000
Frame rate mode : Constant
Frame rate : 24.000 FPS
Color space : YUV
Chroma subsampling : 4:2:0
Bit depth : 8 bits
Scan type : Progressive
Bits/(Pixel*Frame) : 0.206
Stream size : 6.31 GiB (88%)
Default : Yes
Forced : No
Color range : Limited
Color primaries : BT.709
Transfer characteristics : BT.709
Matrix coefficients : BT.709

Audio #1
ID : 2
Format : E-AC-3
Format/Info : Enhanced AC-3
Commercial name : Dolby Digital Plus
Codec ID : A_EAC3
Duration : 1 h 39 min
Bit rate mode : Constant
Bit rate : 640 kb/s
Channel(s) : 6 channels
Channel layout : L R C LFE Ls Rs
Sampling rate : 48.0 kHz
Frame rate : 31.250 FPS (1536 SPF)
Compression mode : Lossy
Stream size : 454 MiB (6%)
Language : Spanish (Latin America)
Service kind : Complete Main
Default : Yes
Forced : No

Audio #2
ID : 3
Format : E-AC-3
Format/Info : Enhanced AC-3
Commercial name : Dolby Digital Plus
Codec ID : A_EAC3
Duration : 1 h 39 min
Bit rate mode : Constant
Bit rate : 640 kb/s
Channel(s) : 6 channels
Channel layout : L R C LFE Ls Rs
Sampling rate : 48.0 kHz
Frame rate : 31.250 FPS (1536 SPF)
Compression mode : Lossy
Stream size : 454 MiB (6%)
Language : French
Service kind : Complete Main
Default : No
Forced : No

Text #1
ID : 4
Format : UTF-8
Codec ID : S_TEXT/UTF8
Codec ID/Info : UTF-8 Plain Text
Duration : 1 h 11 min
Bit rate : 0 b/s
Frame rate : 0.002 FPS
Count of elements : 8
Stream size : 150 Bytes (0%)
Title : Latin American (Forced)
Language : Spanish
Default : Yes
Forced : Yes

Text #2
ID : 5
Format : UTF-8
Codec ID : S_TEXT/UTF8
Codec ID/Info : UTF-8 Plain Text
Duration : 1 h 33 min
Bit rate : 68 b/s
Frame rate : 0.227 FPS
Count of elements : 1279
Stream size : 47.1 KiB (0%)
Title : English
Language : English
Default : No
Forced : No

Text #3
ID : 6
Format : UTF-8
Codec ID : S_TEXT/UTF8
Codec ID/Info : UTF-8 Plain Text
Duration : 1 h 37 min
Bit rate : 57 b/s
Frame rate : 0.218 FPS
Count of elements : 1281
Stream size : 41.2 KiB (0%)
Title : Latin American
Language : Spanish
Default : No
Forced : No


DESCARGA.PNG




⭐ 1 LINK MKV VIP ⭐

Mega.png

Tenemos TODO el material de Club-HD disponible por Mega, enlaces 100% activos y online hasta la fecha

Llévate tus cuentas Mega PRO III gratis con tu membresía VIP!
Todos los posts vivos con links de Mega.
Todo el material de Club-HD desbloqueado y sin publicidad.

Obtén más información sobre nuestras Membresías VIP


LINKS FREE PÚBLICOS

Fireload.png


¡Click aquí para descargar desde Fireload!


1cloudfile.png


¡Click aquí para descargar desde 1cloudfile!

 
Volver