The Internship (2013) 1080p WEB-DL Dual Latino-Inglés [Subt. Esp] (Comedia)

Maestro Revolver

Administrador
Registro
9 Ago 2012
Mensajes
3.157
Reacciones (ptje)
55.041


The-Internship-wdl.jpg




FichaTecnica.jpg


TÍTULO ORIGINAL: The Internship
AÑO: 2013
DURACIÓN: 119 min.
PAÍS: USA
DIRECTOR: Shawn Levy
GUIÓN: Vince Vaughn
REPARTO: Owen Wilson, Vince Vaughn, Rose Byrne, John Goodman, JoAnna Garcia Swisher, Dylan O'Brien, Max Minghella, Jessica Szohr, Bruno Amato, Josh Gad, Aasif Mandvi, Tiya Sircar, Chasty Ballesteros, Will Ferrell
PRODUCTORA: 20th Century Fox / 21 Laps Entertainment / Wild West Picture Show Productions
GÉNERO: Comedia | Trabajo/empleo. Internet/Informática
imdb-logo.png
: http://www.imdb.com/title/tt2234155/




Sinopsis.jpg


Billy (Vince Vaughn) y Nick (Owen Wilson), dos comerciales ya cuarentones que han perdido su empleo, llegan a la conclusión de que su problema consiste en no haberse adaptado a las nuevas tecnologías. Deciden entonces empezar de cero y buscar trabajo en la empresa más popular de Internet: Google. Cuando, por fin, consiguen un contrato de prácticas como becarios, se verán obligados a competir con jóvenes veinteañeros, universitarios brillantes mucho más listos y más familiarizados que ellos con el mundo digital.




Trailer.jpg






Capturas.jpg


1.jpg


2.jpg


3.jpg


4.jpg


5.jpg


6.jpg


La pelicula NO tiene ninguna marca... solo colocamos el nombre de esta web en las capturas




MediaInfo.jpg


Código:
General
Format                                   : Matroska
Format version                           : Version 2
File size                                : 4.13 GiB
Duration                                 : 2h 5mn
Overall bit rate                         : 4 716 Kbps
Movie name                               : www.club-hd.com
Encoded date                             : UTC 2013-10-01 20:17:30
Writing application                      : mkvmerge v5.7.0 ('The Whirlwind') built on Jul  8 2012 20:08:51
Writing library                          : libebml v1.2.3 + libmatroska v1.3.0

Video
ID                                       : 1
Format                                   : AVC
Format/Info                              : Advanced Video Codec
Format profile                           : [email protected]
Format settings, CABAC                   : Yes
Format settings, ReFrames                : 5 frames
Codec ID                                 : V_MPEG4/ISO/AVC
Duration                                 : 2h 5mn
Bit rate                                 : 4 046 Kbps
Width                                    : 1 920 pixels
Height                                   : 810 pixels
Display aspect ratio                     : 2.40:1
Frame rate mode                          : Constant
Frame rate                               : 23.976 fps
Color space                              : YUV
Chroma subsampling                       : 4:2:0
Bit depth                                : 8 bits
Scan type                                : Progressive
Bits/(Pixel*Frame)                       : 0.109
Stream size                              : 3.54 GiB (86%)
Title                                    : www.club-hd.com
Language                                 : English
Default                                  : Yes
Forced                                   : No
Color primaries                          : BT.709
Transfer characteristics                 : BT.709
Matrix coefficients                      : BT.709

Audio #1
ID                                       : 2
Format                                   : AC-3
Format/Info                              : Audio Coding 3
Mode extension                           : CM (complete main)
Format settings, Endianness              : Big
Codec ID                                 : A_AC3
Duration                                 : 2h 5mn
Bit rate mode                            : Constant
Bit rate                                 : 192 Kbps
Channel(s)                               : 2 channels
Channel positions                        : Front: L R
Sampling rate                            : 48.0 KHz
Bit depth                                : 16 bits
Compression mode                         : Lossy
Stream size                              : 172 MiB (4%)
Title                                    : www.club-hd.com  >>  Latino
Language                                 : Spanish
Default                                  : Yes
Forced                                   : No

Audio #2
ID                                       : 3
Format                                   : AC-3
Format/Info                              : Audio Coding 3
Mode extension                           : CM (complete main)
Format settings, Endianness              : Big
Codec ID                                 : A_AC3
Duration                                 : 2h 5mn
Bit rate mode                            : Constant
Bit rate                                 : 384 Kbps
Channel(s)                               : 6 channels
Channel positions                        : Front: L C R, Side: L R, LFE
Sampling rate                            : 48.0 KHz
Bit depth                                : 16 bits
Compression mode                         : Lossy
Stream size                              : 344 MiB (8%)
Title                                    : www.club-hd.com  >>  Inglés
Language                                 : English
Default                                  : No
Forced                                   : No

Text
ID                                       : 4
Format                                   : UTF-8
Codec ID                                 : S_TEXT/UTF8
Codec ID/Info                            : UTF-8 Plain Text
Language                                 : Spanish
Default                                  : No
Forced                                   : No

Menu
00:00:00.000                             : en:Chapter 1
00:05:27.000                             : en:Chapter 2
00:07:50.000                             : en:Chapter 3
00:14:21.000                             : en:Chapter 4
00:19:40.000                             : en:Chapter 5
00:25:58.000                             : en:Chapter 6
00:28:59.000                             : en:Chapter 7
00:32:35.000                             : en:Chapter 8
00:35:04.000                             : en:Chapter 9
00:36:18.000                             : en:Chapter 10
00:41:51.000                             : en:Chapter 11
00:44:34.000                             : en:Chapter 12
00:48:04.000                             : en:Chapter 13
00:50:39.000                             : en:Chapter 14
00:58:27.000                             : en:Chapter 15
01:02:17.000                             : en:Chapter 16
01:06:08.000                             : en:Chapter 17
01:11:12.000                             : en:Chapter 18
01:14:02.000                             : en:Chapter 19
01:15:46.000                             : en:Chapter 20
01:18:51.000                             : en:Chapter 21
01:21:27.000                             : en:Chapter 22
01:24:10.000                             : en:Chapter 23
01:26:07.000                             : en:Chapter 24
01:27:57.000                             : en:Chapter 25
01:29:37.000                             : en:Chapter 26
01:31:39.000                             : en:Chapter 27
01:37:15.000                             : en:Chapter 28
01:42:32.000                             : en:Chapter 29
01:48:12.000                             : en:Chapter 30
01:54:18.000                             : en:Chapter 31
01:57:36.000                             : en:Chapter 32




Descarga.jpg



MEGA.jpg

Tenemos TODO el material de Club-HD disponible por Mega, enlaces 100% activos y online hasta la fecha

Llévate tus cuentas Mega PRO III gratis con tu membresía VIP!
Todos los posts vivos con links de Mega.
Todo el material de Club-HD desbloqueado y sin publicidad.

Obtén más información sobre nuestras Membresías VIP


UPLOADED_BANNER.png

Para ver este contenido oculto, debes dar click en el botón"Like", o cualquiera de las otras reacciones:

Me Gusta Me Gusta, Me Encanta Me Encanta, Jaja Jaja, Wow Wow, Triste Triste, Molesto Molesto



 
Última edición por un moderador:
esta la vi en un prologo en el cine y se veía algo divertida espero que realmente asi lo sea por mientras las descargare para disfrutarla ,y como los master estan votando la casa por la ventana , en cualquier momento esperando man of steel
 
gracias por la movie y todos los aportes de hoy, parece que este mes va a ser muy bueno con este gran inicio ;)
 
Volver