The Killers - Live From The Royal Albert Hall (2009) 1080p BDRip [AC3 5.1] (Concierto)

Maestro Revolver

Well-known member
Miembro del Staff
Administrador
Registro
9 Ago 2012
Mensajes
3.569
Reacciones
59.354
Puntos
113

Reputation:

Aporte Recuperado gracias a nuestro amigo clasaase







Con pistas irreprimibles como 'Mr. Brightside "y la épica" Todas estas cosas que he hecho ", The Killers están justificadamente una de las bandas más grandes del mundo de hoy. Con 17 vivo toma, esta versión se encuentra el impresionante cuarteto de Las Vegas golpear su pico en un entorno verdaderamente monumental. Filmado en el Royal Albert Hall de Londres durante dos conciertos muy especiales en julio, la película pone de manifiesto cómo, en sólo cinco años, la banda de Las Vegas se ha convertido en una de las bandas más grandes y excitantes vivos en el mundo, con el espectáculo para que coincida con su increíble catálogo de canciones. [Traductor de Google]



Track List:
1. Human
2. This Is Your Life
3. Somebody Told Me
4. For Reasons Unknown
5. The World We Live In
6. Joy Ride
7. I Can't Stay
8. Bling (Confession Of A King)
9. Shadowplay
10. Smile Like You Mean It
11. Losing Touch
12. Spaceman
13. A Dustland Fairytale
14. Sam's Town (Acoustic)
15. Read My Mind
16. Mr. Brightside
17. All These Things That I've Done
18. Sweet Talk
19. This River Is Wild
20. Bones
21. Jenny Was A Friend Of Mine
22. When You Were Young




























Código:
General
Format                                   : Matroska
Format version                           : Version 2
File size                                : 8.22 GiB
Duration                                 : 1h 53mn
Overall bit rate                         : 10.4 Mbps
Movie name                               : www.club-hd.com
Encoded date                             : UTC 2013-01-03 06:04:27
Writing application                      : mkvmerge v5.7.0 ('The Whirlwind') built on Jul  8 2012 20:08:51
Writing library                          : libebml v1.2.3 + libmatroska v1.3.0

Video
ID                                       : 1
Format                                   : AVC
Format/Info                              : Advanced Video Codec
Format profile                           : Main@L4.0
Format settings, CABAC                   : Yes
Format settings, ReFrames                : 4 frames
Codec ID                                 : V_MPEG4/ISO/AVC
Duration                                 : 1h 53mn
Bit rate                                 : 9 521 Kbps
Width                                    : 1 916 pixels
Height                                   : 1 080 pixels
Display aspect ratio                     : 16:9
Frame rate mode                          : Constant
Frame rate                               : 29.970 fps
Color space                              : YUV
Chroma subsampling                       : 4:2:0
Bit depth                                : 8 bits
Scan type                                : Progressive
Bits/(Pixel*Frame)                       : 0.154
Stream size                              : 7.55 GiB (92%)
Title                                    : www.club-hd.com
Writing library                          : x264 core 112
Language                                 : English
Default                                  : Yes
Forced                                   : No
Color primaries                          : BT.709
Transfer characteristics                 : BT.709
Matrix coefficients                      : BT.709

Audio
ID                                       : 2
Format                                   : AC-3
Format/Info                              : Audio Coding 3
Mode extension                           : CM (complete main)
Format settings, Endianness              : Big
Codec ID                                 : A_AC3
Duration                                 : 1h 53mn
Bit rate mode                            : Constant
Bit rate                                 : 640 Kbps
Channel(s)                               : 6 channels
Channel positions                        : Front: L C R, Side: L R, LFE
Sampling rate                            : 48.0 KHz
Bit depth                                : 16 bits
Compression mode                         : Lossy
Stream size                              : 520 MiB (6%)
Title                                    : www.club-hd.com
Language                                 : English
Default                                  : Yes
Forced                                   : No

Menu
00:00:09.000                             : :Intro
00:01:31.182                             : :Human
00:05:43.534                             : :This Is Your Life
00:09:53.483                             : :Somebody Told Me
00:13:26.829                             : :For Reasons Unknown
00:19:46.541                             : :The World We Live In
00:24:26.186                             : :Joyride
00:28:47.847                             : :I Can't Stay
00:33:47.246                             : :Bling (Confessions Of A King)
00:40:14.399                             : :Shadowplay
00:44:20.511                             : :Smile Like You Mean It
00:48:42.239                             : :Losing Touch
00:52:59.896                             : :Spaceman
00:59:33.089                             : :A Dustland Fairytale
01:05:06.655                             : :Sam's Town (Acoustic)
01:09:34.989                             : :Read My Mind
01:14:09.829                             : :Speech
01:15:58.537                             : :Mr. Brightside
01:19:51.837                             : :All These Things That I've Done
01:25:31.543                             : :Bacsktage [Break]
01:28:09.601                             : :Sweet Talk
01:33:29.987                             : :The River Is Wild
01:38:49.773                             : :Bones
01:43:03.626                             : :Jenny Was A Friend Of Mine
01:47:41.403                             : :When You Were Young
01:52:28.323                             : :Outro












Todos los links son Intercambiables!



Enlaces de Mega y Fireload solo disponibles para Miembros VIP

Compra tu Membresía VIP y apoya a Club-HD!

ATENCIÓN! Tenemos TODO el material de Club-HD disponible por Mega y Fireload, enlaces 100% activos y online hasta la fecha

Llévate tus cuentas Mega PRO II gratis con tu membresía VIP!
Todos los posts vivos con links de Mega y Fireload.
Todo el material de Club-HD desbloqueado y sin publicidad.

Click Aquí para más información.


Para ver este contenido oculto, debes dar click en una de las siguientes reacciones : Like Like, Love Love, Haha Haha, Wow Wow, Sad Sad, Angry Angry


Para ver este contenido oculto, debes dar click en una de las siguientes reacciones : Like Like, Love Love, Haha Haha, Wow Wow, Sad Sad, Angry Angry


Para ver este contenido oculto, debes dar click en una de las siguientes reacciones : Like Like, Love Love, Haha Haha, Wow Wow, Sad Sad, Angry Angry
 
Última edición por un moderador:

Addi

New member
Registro
27 Ago 2012
Mensajes
250
Reacciones
4
Puntos
0
Edad
34

Reputation:

yeahhhhhhh que mega genial aporte gracias...
 

Yonatan

Admin
Miembro del Staff
Administrador
Registro
27 Ago 2012
Mensajes
1.768
Reacciones
3.728
Puntos
113
Edad
28
Ubicación
Chile, Sexta Región

Reputation:

H_b4ngerH_b4ngerH_b4ngerH_b4nger gran grupo, podrias subir algo como de Linkin Park xD o el grupo silverstein xD te lo agradecería :D
 

orcko5001

Active member
Registro
27 Ago 2012
Mensajes
288
Reacciones
35
Puntos
28
Edad
37

Reputation:

tsss mega concierto te pasaste bro mchas gracias de lo mejor club-hd saludos
 

kyttuss

New member
Registro
31 Ago 2012
Mensajes
170
Reacciones
0
Puntos
0

Reputation:

Increíble recital, que buena banda The Killers!!!!!!!!!!!!! :aplausos::aplausos:
 

arkkangeldark

Well-known member
Registro
27 Ago 2012
Mensajes
3.445
Reacciones
576
Puntos
113
Edad
34
Ubicación
Torreon Coahuila

Reputation:

gracias revolver por este excelente concierto de the killers, a disfrutar se ha dicho, e igual que Yonatan te pido si podrias subir en un futuro uno de Linkin Park
 

Usuarios Que Están Viendo Este Tema (Total: 1, Miembros: 0, Invitados: 1)

Arriba