The Lake House (2006) 720p BDRip Dual Latino-Inglés [Subt. Esp] (Romance. Drama)

Maestro Revolver

Administrador
Registro
9 Ago 2012
Mensajes
3.157
Reacciones (ptje)
55.208

The-Lake-House.jpg




FichaTecnica.jpg


TÍTULO ORIGINAL: The Lake House
AÑO: 2006
DURACIÓN: 105 min.
PAÍS: USA
DIRECTOR: Alejandro Agresti
GUIÓN: David Auburn
REPARTO: Keanu Reeves, Sandra Bullock, Dylan Walsh, Christopher Plummer, Shohreh Aghdashloo, Lynn Collins
PRODUCTORA: Warner Bros. Pictures / Village Roadshow Pictures / Vertigo Entertainment
GÉNERO: Romance. Drama | Drama romántico. Remake
imdb-logo.png
: http://www.imdb.com/title/tt0410297/




Sinopsis.jpg


Una doctora solitaria y un arquitecto se enamoran platónicamente escribiéndose cartas a través de un correo que, misteriosamente, une el tiempo pasado con el presente. La doctora Kate Forester decide, de repente, mudarse: abandona Illinois para trabajar en un importante hospital de Chicago. Lo único que lamenta es dejar la hermosa y original casa con vistas al lago en la que vivía. Antes de irse, deja una nota en el buzón dirigida al próximo inquilino, pidiéndole que le envíe el correo a su nueva dirección y explicándole que las extrañas huellas de patas que hay en la puerta de entrada ya estaban allí cuando ella se instaló en la casa. Pero cuando el inquilino llega, lo que ve es una casa muy abandonada: polvorienta, sucia, y con el jardín invadido por la maleza. Lo que no ve son huellas de patas por ningún lado... Remake del film coreano "Siworae" (2000), de Hyun-seung Lee.




Trailer.jpg






Capturas.jpg


1.jpg


2.jpg


3.jpg


4.jpg


5.jpg


6.jpg


La pelicula NO tiene ninguna marca... solo colocamos el nombre de esta web en las capturas




MediaInfo.jpg


Código:
General
Format                                   : Matroska
Format version                           : Version 2
File size                                : 3.67 GiB
Duration                                 : 1h 38mn
Overall bit rate                         : 5 329 Kbps
Movie name                               : www.club-hd.com
Encoded date                             : UTC 2013-08-21 01:48:33
Writing application                      : mkvmerge v5.7.0 ('The Whirlwind') built on Jul  8 2012 20:08:51
Writing library                          : libebml v1.2.3 + libmatroska v1.3.0

Video
ID                                       : 1
Format                                   : AVC
Format/Info                              : Advanced Video Codec
Format profile                           : [email protected]
Format settings, CABAC                   : Yes
Format settings, ReFrames                : 8 frames
Codec ID                                 : V_MPEG4/ISO/AVC
Duration                                 : 1h 38mn
Bit rate                                 : 4 500 Kbps
Width                                    : 1 280 pixels
Height                                   : 528 pixels
Display aspect ratio                     : 2.40:1
Frame rate mode                          : Constant
Frame rate                               : 23.976 fps
Color space                              : YUV
Chroma subsampling                       : 4:2:0
Bit depth                                : 8 bits
Scan type                                : Progressive
Bits/(Pixel*Frame)                       : 0.278
Stream size                              : 2.98 GiB (81%)
Title                                    : www.club-hd.com
Writing library                          : x264 core 120
Language                                 : English
Default                                  : Yes
Forced                                   : No
Color primaries                          : BT.709
Transfer characteristics                 : BT.709
Matrix coefficients                      : BT.709

Audio #1
ID                                       : 2
Format                                   : AC-3
Format/Info                              : Audio Coding 3
Mode extension                           : CM (complete main)
Format settings, Endianness              : Big
Codec ID                                 : A_AC3
Duration                                 : 1h 38mn
Bit rate mode                            : Constant
Bit rate                                 : 448 Kbps
Channel(s)                               : 6 channels
Channel positions                        : Front: L C R, Side: L R, LFE
Sampling rate                            : 48.0 KHz
Bit depth                                : 16 bits
Compression mode                         : Lossy
Delay relative to video                  : 1s 0ms
Stream size                              : 316 MiB (8%)
Title                                    : www.club-hd.com > Latino
Language                                 : Spanish
Default                                  : Yes
Forced                                   : No

Audio #2
ID                                       : 3
Format                                   : AC-3
Format/Info                              : Audio Coding 3
Mode extension                           : CM (complete main)
Format settings, Endianness              : Big
Codec ID                                 : A_AC3
Duration                                 : 1h 38mn
Bit rate mode                            : Constant
Bit rate                                 : 448 Kbps
Channel(s)                               : 6 channels
Channel positions                        : Front: L C R, Side: L R, LFE
Sampling rate                            : 48.0 KHz
Bit depth                                : 16 bits
Compression mode                         : Lossy
Stream size                              : 316 MiB (8%)
Title                                    : www.club-hd.com > Inglés
Language                                 : English
Default                                  : No
Forced                                   : No

Text
ID                                       : 4
Format                                   : UTF-8
Codec ID                                 : S_TEXT/UTF8
Codec ID/Info                            : UTF-8 Plain Text
Language                                 : Spanish
Default                                  : No
Forced                                   : No




Descarga.jpg



MEGA.jpg

Tenemos TODO el material de Club-HD disponible por Mega, enlaces 100% activos y online hasta la fecha

Llévate tus cuentas Mega PRO III gratis con tu membresía VIP!
Todos los posts vivos con links de Mega.
Todo el material de Club-HD desbloqueado y sin publicidad.

Obtén más información sobre nuestras Membresías VIP


UPLOADED_BANNER.png

Para ver este contenido oculto, debes dar click en el botón"Like", o cualquiera de las otras reacciones:

Me Gusta Me Gusta, Me Encanta Me Encanta, Jaja Jaja, Wow Wow, Triste Triste, Molesto Molesto

google-drive.png

Para ver este contenido oculto, debes dar click en el botón"Like", o cualquiera de las otras reacciones:

Me Gusta Me Gusta, Me Encanta Me Encanta, Jaja Jaja, Wow Wow, Triste Triste, Molesto Molesto
 
Última edición por un moderador:
Desc_g_ Si una historia muy hermosa ademas hay una version coriana claro de bajo presupuesto. jejeje !!! ... Gracias !!! Tb_up3
 
Volver