The Last Airbender (2010) 1080p BDRip Dual Latino-Inglés [Subt. Esp-Ing] (Fantástico. Aventura)

Maestro Revolver

Well-known member
Miembro del Staff
Administrador
Registro
9 Ago 2012
Mensajes
3.569
Reacciones
59.366
Puntos
113

Reputation:


Aporte Recuperado gracias a nuestros amigos ismar360 y RickAnto







TÍTULO ORIGINAL: The Last Airbender (AKA Avatar)
AÑO: 2010
DURACIÓN: 103 min.
PAÍS: USA
DIRECTOR: M. Night Shyamalan
GUIÓN: M. Night Shyamalan (Serie de TV: Michael Dante DiMartino, Bryan Konietzko)
REPARTO: Noah Ringer, Dev Patel, Jackson Rathbone, Nicola Peltz, Shaun Toub, Aasif Mandvi, Cliff Curtis, Jessica Andres, Seychelle Gabriel, Keong Sim
PRODUCTORA: Paramount Pictures / Nickelodeon Movies / MTV Films
GÉNERO: Fantástico. Aventuras | Artes marciales. 3-D
: http://www.imdb.com/title/tt0938283/






Fantasía épica que adapta la serie "Avatar: The Last Airbender". La nación del Fuego declara la guerra a las naciones del Aire, el Agua y la Tierra. Tras un siglo de lucha, no hay esperanza alguna de acabar con tanta destrucción. Aang (Noah Ringer), el más reciente sucesor del ciclo del avatar, el único con poder para controlar los cuatro elementos, tendrá que viajar hasta el Polo Norte para dominarlos y poner fin a la guerra. En esta aventura se unen a él Katara, una Maestra Agua, y su hermano Sokka. Durante su viaje serán perseguidos por el príncipe Zuko (Dev Patel), el cual intenta capturar al avatar para recuperar su honor...
























La pelicula NO tiene ninguna marca... solo colocamos el nombre de esta web en las capturas






Código:
General
Format                                   : Matroska
Format version                           : Version 2
File size                                : 8.72 GiB
Duration                                 : 1h 43mn
Overall bit rate                         : 12.1 Mbps
Movie name                               : www.club-hd.com
Encoded date                             : UTC 2012-12-19 22:37:04
Writing application                      : mkvmerge v5.7.0 ('The Whirlwind') built on Jul  8 2012 20:08:51
Writing library                          : libebml v1.2.3 + libmatroska v1.3.0

Video
ID                                       : 1
Format                                   : AVC
Format/Info                              : Advanced Video Codec
Format profile                           : High@L4.0
Format settings, CABAC                   : Yes
Format settings, ReFrames                : 5 frames
Codec ID                                 : V_MPEG4/ISO/AVC
Duration                                 : 1h 43mn
Bit rate                                 : 9 496 Kbps
Width                                    : 1 920 pixels
Height                                   : 816 pixels
Display aspect ratio                     : 2.35:1
Frame rate mode                          : Constant
Frame rate                               : 23.976 fps
Color space                              : YUV
Chroma subsampling                       : 4:2:0
Bit depth                                : 8 bits
Scan type                                : Progressive
Bits/(Pixel*Frame)                       : 0.253
Stream size                              : 6.67 GiB (77%)
Title                                    : www.club-hd.com
Writing library                          : x264 core 107 r1745 4785e8e
Language                                 : English
Default                                  : Yes
Forced                                   : No

Audio #1
ID                                       : 2
Format                                   : AC-3
Format/Info                              : Audio Coding 3
Mode extension                           : CM (complete main)
Format settings, Endianness              : Big
Codec ID                                 : A_AC3
Duration                                 : 1h 43mn
Bit rate mode                            : Constant
Bit rate                                 : 448 Kbps
Channel(s)                               : 6 channels
Channel positions                        : Front: L C R, Side: L R, LFE
Sampling rate                            : 48.0 KHz
Bit depth                                : 16 bits
Compression mode                         : Lossy
Stream size                              : 331 MiB (4%)
Title                                    : www.club-hd.com  >>  Latino AC3 5.1
Language                                 : Spanish
Default                                  : Yes
Forced                                   : No

Audio #2
ID                                       : 3
Format                                   : AC-3
Format/Info                              : Audio Coding 3
Mode extension                           : CM (complete main)
Format settings, Endianness              : Big
Codec ID                                 : A_AC3
Duration                                 : 1h 43mn
Bit rate mode                            : Constant
Bit rate                                 : 640 Kbps
Channel(s)                               : 6 channels
Channel positions                        : Front: L C R, Side: L R, LFE
Sampling rate                            : 48.0 KHz
Bit depth                                : 16 bits
Compression mode                         : Lossy
Stream size                              : 473 MiB (5%)
Title                                    : www.club-hd.com  >>  Inglés AC3 5.1
Language                                 : English
Default                                  : No
Forced                                   : No

Audio #3
ID                                       : 4
Format                                   : DTS
Format/Info                              : Digital Theater Systems
Mode                                     : 16
Format settings, Endianness              : Big
Codec ID                                 : A_DTS
Duration                                 : 1h 43mn
Bit rate mode                            : Constant
Bit rate                                 : 1 509 Kbps
Channel(s)                               : 6 channels
Channel positions                        : Front: L C R, Side: L R, LFE
Sampling rate                            : 48.0 KHz
Bit depth                                : 24 bits
Compression mode                         : Lossy
Stream size                              : 1.09 GiB (12%)
Title                                    : www.club-hd.com  >>  Inglés DTS 5.1
Language                                 : English
Default                                  : No
Forced                                   : No

Text #1
ID                                       : 5
Format                                   : UTF-8
Codec ID                                 : S_TEXT/UTF8
Codec ID/Info                            : UTF-8 Plain Text
Language                                 : Spanish
Default                                  : No
Forced                                   : No

Text #2
ID                                       : 6
Format                                   : UTF-8
Codec ID                                 : S_TEXT/UTF8
Codec ID/Info                            : UTF-8 Plain Text
Language                                 : English
Default                                  : No
Forced                                   : No

Menu
00:00:00.000                             : en:00:00:00.000
00:11:45.371                             : en:00:11:45.371
00:18:07.753                             : en:00:18:07.753
00:26:34.635                             : en:00:26:34.635
00:38:04.991                             : en:00:38:04.991
00:51:10.985                             : en:00:51:10.985
00:59:56.968                             : en:00:59:56.968
01:09:05.725                             : en:01:09:05.725
01:18:46.096                             : en:01:18:46.096
01:28:10.494                             : en:01:28:10.494
01:35:03.197                             : en:01:35:03.197







Código:
www.club-hd.com[/CENTER]







Todos los links son Intercambiables!





Enlaces de Mega y Fireload solo disponibles para Miembros VIP

Compra tu Membresía VIP y apoya a Club-HD!

ATENCIÓN! Tenemos TODO el material de Club-HD disponible por Mega y Fireload, enlaces 100% activos y online hasta la fecha

Llévate tus cuentas Mega PRO II gratis con tu membresía VIP!
Todos los posts vivos con links de Mega y Fireload.
Todo el material de Club-HD desbloqueado y sin publicidad.

Click Aquí para más información.




Enlaces de Mega y Fireload solo disponibles para Miembros VIP

Compra tu Membresía VIP y apoya a Club-HD!

ATENCIÓN! Tenemos TODO el material de Club-HD disponible por Mega y Fireload, enlaces 100% activos y online hasta la fecha

Llévate tus cuentas Mega PRO II gratis con tu membresía VIP!
Todos los posts vivos con links de Mega y Fireload.
Todo el material de Club-HD desbloqueado y sin publicidad.

Click Aquí para más información.



Enlaces de Mega y Fireload solo disponibles para Miembros VIP

Compra tu Membresía VIP y apoya a Club-HD!

ATENCIÓN! Tenemos TODO el material de Club-HD disponible por Mega y Fireload, enlaces 100% activos y online hasta la fecha

Llévate tus cuentas Mega PRO II gratis con tu membresía VIP!
Todos los posts vivos con links de Mega y Fireload.
Todo el material de Club-HD desbloqueado y sin publicidad.

Click Aquí para más información.


Para ver este contenido oculto, debes dar click en una de las siguientes reacciones : Like Like, Love Love, Haha Haha, Wow Wow, Sad Sad, Angry Angry

Para ver este contenido oculto, debes dar click en una de las siguientes reacciones : Like Like, Love Love, Haha Haha, Wow Wow, Sad Sad, Angry Angry
 
Última edición:

sunker-123

New member
Registro
27 Ago 2012
Mensajes
2.433
Reacciones
200
Puntos
0
Edad
31

Reputation:

Muchas gracias R21, pero podrias subirla en 720p...
por favor..:llrnd2::LXR:
 

Nosferatu

Well-known member
Súper Moderador
Registro
31 Ago 2012
Mensajes
2.275
Reacciones
1.362
Puntos
113
Edad
44
Ubicación
Welcome to Hell!!

Reputation:

Excelente película y en 1080p lo máximo, todo un clásico, aunque es del 2010, me la llevo.:aplausos::aplausos:
Me la llevo aunque a Yonx. no le guste, sulk2 ese sinvergüenza no sabe del séptimo arte.:crcjd::crcjd:

Muchas Gracias R21!
 

Yonatan

Admin
Miembro del Staff
Administrador
Registro
27 Ago 2012
Mensajes
1.768
Reacciones
3.730
Puntos
113
Edad
28
Ubicación
Chile, Sexta Región

Reputation:

Excelente película y en 1080p lo máximo, todo un clásico, aunque es del 2010, me la llevo.:aplausos::aplausos:
Me la llevo aunque a Yonx. no le guste, sulk2 ese sinvergüenza no sabe del séptimo arte.:crcjd::crcjd:

Muchas Gracias R21!

no me gusta por el motivo de que ni se parece a la serie animada solo por eso te mereces esto Nosfe. punish porque yo si se lo que es el septimo arte T0ngue2
 

VIKTORIUZ

New member
Registro
27 Ago 2012
Mensajes
340
Reacciones
3
Puntos
0

Reputation:

Siiiiiiiiiiiiiii ! La vimos en el cine y queriamos volver a verla !! Gracias x subirla 1080 !!
 

Maestro Revolver

Well-known member
Miembro del Staff
Administrador
Registro
9 Ago 2012
Mensajes
3.569
Reacciones
59.366
Puntos
113

Reputation:

Voy a subir en 720p y en unos dias mas en 3D :dplgar:
 

Joker

Well-known member
Miembro del Staff
Súper Moderador
Registro
27 Ago 2012
Mensajes
1.349
Reacciones
3.765
Puntos
113
Ubicación
Arkham Asylum

Reputation:

Desc_g_

No la he visto, dicen que no esta tan mala a ver si es cierto xD

Gracias!!!

Saludos :D
 

Usuarios Que Están Viendo Este Tema (Total: 1, Miembros: 0, Invitados: 1)

Arriba