The Last Exorcism Part II (2013) UNRATED 720p BDRip Dual Latino-Inglés [Subt. Esp] (Terror)

Maestro Revolver

Administrador
Registro
9 Ago 2012
Mensajes
3.157
Reacciones (ptje)
54.886


The-last-exorcism-part-2.jpg




FichaTecnica.jpg


TÍTULO ORIGINAL: The Last Exorcism. Part II (The Last Exorcism 2)
AÑO: 2013
DURACIÓN: 118 min.
PAÍS: USA
DIRECTOR: Ed Gass-Donnelly
GUIÓN: Damien Chazelle, Ed Gass-Donnelly
REPARTO: Ashley Bell, Spencer Treat Clark, Andrew Sensenig, Judd Lormand, Julia Garner, Muse Watson, E. Roger Mitchell, David Jensen, Raeden Greer, Joe Chrest
PRODUCTORA: Arcade Pictures / Strike Entertainment / Studio Canal; Productor: Eli Roth
GÉNERO: Terror | Sobrenatural. Posesiones/Exorcismos. Secuela
imdb-logo.png
: http://www.imdb.com/title/tt2034139/




Sinopsis.jpg


Nell Sweetzer (Ashley Bell) es encontrada (aterrorizada y sola) en el rural de Luisiana.
De vuelta en la relativa seguridad de Nueva Orleans, Nell se percata que no puede recordar fragmentos de los últimos meses; solo que es la única superviviente de su familia. Mientras Nell comienza el dificultoso proceso de forjarse una nueva vida, el maléfico poder que la poseyó está de vuelta con otro plan inimaginablemente aterrador que harán de su primer exorcismo un mero ensayo de lo que está por venir.




Trailer.jpg






Capturas.jpg


1.jpg


2.jpg


3.jpg


4.jpg


5.jpg


6.jpg


La pelicula NO tiene ninguna marca... solo colocamos el nombre de esta web en las capturas




MediaInfo.jpg


Código:
General
Format                                   : Matroska
Format version                           : Version 2
File size                                : 4.10 GiB
Duration                                 : 1h 30mn
Overall bit rate                         : 6 496 Kbps
Movie name                               : www.club-hd.com
Encoded date                             : UTC 2013-09-10 03:01:41
Writing application                      : mkvmerge v5.7.0 ('The Whirlwind') built on Jul  8 2012 20:08:51
Writing library                          : libebml v1.2.3 + libmatroska v1.3.0

Video
ID                                       : 1
Format                                   : AVC
Format/Info                              : Advanced Video Codec
Format profile                           : [email protected]
Format settings, CABAC                   : Yes
Format settings, ReFrames                : 5 frames
Codec ID                                 : V_MPEG4/ISO/AVC
Duration                                 : 1h 30mn
Bit rate                                 : 5 475 Kbps
Width                                    : 1 280 pixels
Height                                   : 528 pixels
Display aspect ratio                     : 2.40:1
Frame rate mode                          : Constant
Frame rate                               : 23.976 fps
Color space                              : YUV
Chroma subsampling                       : 4:2:0
Bit depth                                : 8 bits
Scan type                                : Progressive
Bits/(Pixel*Frame)                       : 0.338
Stream size                              : 3.33 GiB (81%)
Title                                    : www.club-hd.com
Writing library                          : x264 core 133 r2334 a3ac64b
Language                                 : English
Default                                  : Yes
Forced                                   : No

Audio #1
ID                                       : 2
Format                                   : AC-3
Format/Info                              : Audio Coding 3
Mode extension                           : CM (complete main)
Format settings, Endianness              : Big
Codec ID                                 : A_AC3
Duration                                 : 1h 30mn
Bit rate mode                            : Constant
Bit rate                                 : 448 Kbps
Channel(s)                               : 6 channels
Channel positions                        : Front: L C R, Side: L R, LFE
Sampling rate                            : 48.0 KHz
Bit depth                                : 16 bits
Compression mode                         : Lossy
Delay relative to video                  : 362ms
Stream size                              : 290 MiB (7%)
Title                                    : www.club-hd.com > Latino
Language                                 : Spanish
Default                                  : Yes
Forced                                   : No

Audio #2
ID                                       : 3
Format                                   : AC-3
Format/Info                              : Audio Coding 3
Mode extension                           : CM (complete main)
Format settings, Endianness              : Big
Codec ID                                 : A_AC3
Duration                                 : 1h 30mn
Bit rate mode                            : Constant
Bit rate                                 : 640 Kbps
Channel(s)                               : 6 channels
Channel positions                        : Front: L C R, Side: L R, LFE
Sampling rate                            : 48.0 KHz
Bit depth                                : 16 bits
Compression mode                         : Lossy
Stream size                              : 414 MiB (10%)
Title                                    : www.club-hd.com > Inglés
Language                                 : English
Default                                  : No
Forced                                   : No

Text
ID                                       : 4
Format                                   : UTF-8
Codec ID                                 : S_TEXT/UTF8
Codec ID/Info                            : UTF-8 Plain Text
Title                                    : www.club-hd.com
Language                                 : Spanish
Default                                  : No
Forced                                   : No

Menu
00:00:00.000                             : en:00:00:00.000
00:06:12.622                             : en:00:06:12.622
00:11:26.019                             : en:00:11:26.019
00:14:43.299                             : en:00:14:43.299
00:19:38.886                             : en:00:19:38.886
00:24:59.790                             : en:00:24:59.790
00:31:17.542                             : en:00:31:17.542
00:37:41.426                             : en:00:37:41.426
00:43:02.580                             : en:00:43:02.580
00:47:13.539                             : en:00:47:13.539
00:52:04.246                             : en:00:52:04.246
00:57:30.906                             : en:00:57:30.906
01:03:30.140                             : en:01:03:30.140
01:09:57.485                             : en:01:09:57.485
01:14:28.756                             : en:01:14:28.756
01:21:00.189                             : en:01:21:00.189




Descarga.jpg



MEGA.jpg

Tenemos TODO el material de Club-HD disponible por Mega, enlaces 100% activos y online hasta la fecha

Llévate tus cuentas Mega PRO III gratis con tu membresía VIP!
Todos los posts vivos con links de Mega.
Todo el material de Club-HD desbloqueado y sin publicidad.

Obtén más información sobre nuestras Membresías VIP



UPLOADED_BANNER.png

Para ver este contenido oculto, debes dar click en el botón"Like", o cualquiera de las otras reacciones:

Me Gusta Me Gusta, Me Encanta Me Encanta, Jaja Jaja, Wow Wow, Triste Triste, Molesto Molesto

 
Última edición por un moderador:
Me la llevo gracias por la pelicula, veremos que tal es :D :dplgar:

Desc_g_
 
Muchas gracias por compartir, se ve muy buena, a descargar...
 
Volver