The Lone Ranger (2013) 1080p BDRip Dual Latino-Inglés [Subt. Esp] (Aventura. Western. Acción)

Maestro Revolver

Well-known member
Miembro del Staff
Administrador
Registro
9 Ago 2012
Mensajes
3.567








TÍTULO ORIGINAL: The Lone Ranger
AÑO: 2013
DURACIÓN: 149 min.
PAÍS: USA
DIRECTOR: Gore Verbinski
GUIÓN: Justin Haythe, Ted Elliott, Terry Rossio
REPARTO: Armie Hammer, Johnny Depp, Tom Wilkinson, William Fichtner, Ruth Wilson, Helena Bonham Carter, James Badge Dale, Bryant Prince, Barry Pepper, Harry Treadaway, James Frain, Mason Elston Cook, Joaquín Cosío
PRODUCTORA: Walt Disney Pictures / Jerry Bruckheimer Films
GÉNERO: Aventuras. Western. Acción | Trenes. Venganza
: http://www.imdb.com/title/tt1210819/






Adaptación de las aventuras del héroe del serial radiofónico del mismo título. Un grupo de Rangers de Texas sufre el ataque de una banda de forajidos. Un indio llamado Toro encuentra al único superviviente, el Llanero Solitario. Desde entonces, el héroe, su caballo Silver y su nuevo ayudante Toro, recorren el estado para vengarse de los forajidos y hacer triunfar la justicia.
























La pelicula NO tiene ninguna marca... solo colocamos el nombre de esta web en las capturas






Código:
General
Format                                   : Matroska
Format version                           : Version 2
File size                                : 15.0 GiB
Duration                                 : 2h 29mn
Overall bit rate                         : 14.4 Mbps
Movie name                               : www.club-hd.com
Encoded date                             : UTC 2013-10-13 23:05:55
Writing application                      : mkvmerge v5.7.0 ('The Whirlwind') built on Jul  8 2012 20:08:51
Writing library                          : libebml v1.2.3 + libmatroska v1.3.0

Video
ID                                       : 1
Format                                   : AVC
Format/Info                              : Advanced Video Codec
Format profile                           : High@L4.1
Format settings, CABAC                   : Yes
Format settings, ReFrames                : 5 frames
Codec ID                                 : V_MPEG4/ISO/AVC
Duration                                 : 2h 29mn
Bit rate                                 : 11.6 Mbps
Width                                    : 1 920 pixels
Height                                   : 800 pixels
Display aspect ratio                     : 2.40:1
Frame rate mode                          : Constant
Frame rate                               : 23.976 fps
Color space                              : YUV
Chroma subsampling                       : 4:2:0
Bit depth                                : 8 bits
Scan type                                : Progressive
Bits/(Pixel*Frame)                       : 0.314
Stream size                              : 12.1 GiB (80%)
Title                                    : www.club-hd.com
Language                                 : English
Default                                  : Yes
Forced                                   : No

Audio #1
ID                                       : 2
Format                                   : AC-3
Format/Info                              : Audio Coding 3
Mode extension                           : CM (complete main)
Format settings, Endianness              : Big
Codec ID                                 : A_AC3
Duration                                 : 2h 29mn
Bit rate mode                            : Constant
Bit rate                                 : 384 Kbps
Channel(s)                               : 6 channels
Channel positions                        : Front: L C R, Side: L R, LFE
Sampling rate                            : 48.0 KHz
Bit depth                                : 16 bits
Compression mode                         : Lossy
Stream size                              : 411 MiB (3%)
Title                                    : www.club-hd.com  >>  Latino AC3 5.1
Language                                 : Spanish
Default                                  : Yes
Forced                                   : No

Audio #2
ID                                       : 3
Format                                   : AC-3
Format/Info                              : Audio Coding 3
Mode extension                           : CM (complete main)
Format settings, Endianness              : Big
Codec ID                                 : A_AC3
Duration                                 : 2h 29mn
Bit rate mode                            : Constant
Bit rate                                 : 640 Kbps
Channel(s)                               : 6 channels
Channel positions                        : Front: L C R, Side: L R, LFE
Sampling rate                            : 48.0 KHz
Bit depth                                : 16 bits
Compression mode                         : Lossy
Stream size                              : 685 MiB (4%)
Title                                    : www.club-hd.com  >>  Inglés AC3 5.1
Language                                 : English
Default                                  : No
Forced                                   : No

Audio #3
ID                                       : 4
Format                                   : DTS
Format/Info                              : Digital Theater Systems
Mode                                     : 16
Format settings, Endianness              : Big
Codec ID                                 : A_DTS
Duration                                 : 2h 29mn
Bit rate mode                            : Constant
Bit rate                                 : 1 509 Kbps
Channel(s)                               : 6 channels
Channel positions                        : Front: L C R, Side: L R, LFE
Sampling rate                            : 48.0 KHz
Bit depth                                : 24 bits
Compression mode                         : Lossy
Stream size                              : 1.58 GiB (10%)
Title                                    : www.club-hd.com  >>  Inglés DTS 5.1
Language                                 : English
Default                                  : No
Forced                                   : No

Text
ID                                       : 5
Format                                   : UTF-8
Codec ID                                 : S_TEXT/UTF8
Codec ID/Info                            : UTF-8 Plain Text
Language                                 : Spanish
Default                                  : No
Forced                                   : No

Menu
00:00:00.000                             : en:00:00:00.000
00:08:16.121                             : en:00:08:16.121
00:13:38.776                             : en:00:13:38.776
00:24:51.407                             : en:00:24:51.407
00:29:03.033                             : en:00:29:03.033
00:32:05.841                             : en:00:32:05.841
00:40:32.013                             : en:00:40:32.013
00:45:29.644                             : en:00:45:29.644
00:53:29.665                             : en:00:53:29.665
01:01:05.662                             : en:01:01:05.662
01:10:01.614                             : en:01:10:01.614
01:16:12.318                             : en:01:16:12.318
01:24:45.455                             : en:01:24:45.455
01:28:39.731                             : en:01:28:39.731
01:35:35.188                             : en:01:35:35.188
01:41:13.985                             : en:01:41:13.985
01:46:35.806                             : en:01:46:35.806
01:50:02.179                             : en:01:50:02.179
01:53:55.203                             : en:01:53:55.203
01:56:15.260                             : en:01:56:15.260
02:01:51.095                             : en:02:01:51.095
02:12:07.211                             : en:02:12:07.211
02:17:13.934                             : en:02:17:13.934
02:20:20.287                             : en:02:20:20.287








Enlaces de Mega y Google Drive solo disponibles para Miembros VIP

Compra tu Membresía VIP y apoya a Club-HD!

ATENCIÓN! Tenemos TODO el material de Club-HD disponible por Mega y Google Drive, enlaces 100% activos y online hasta la fecha

Llévate tus cuentas Mega PRO III gratis con tu membresía VIP!
Todos los posts vivos con links de Mega y Google Drive.
Todo el material de Club-HD desbloqueado y sin publicidad.

Click Aquí para más información.


Para ver este contenido oculto, debes dar click en una de las siguientes reacciones : Like Like, Love Love, Haha Haha, Wow Wow, Sad Sad, Angry Angry
 
Última edición por un moderador:

Escorpion41

Active member
Registro
19 Sep 2012
Mensajes
325
Edad
51
Gracias R22. por compartir .Esta peli la vi en mala calidad y la esperaba con anciedad. porque la verdad es que me encanto . ''Muchisimas gracias'' .
 

Usuarios Que Están Viendo Este Tema (Total: 1, Miembros: 0, Invitados: 1)

Quién Leyó Este Tema (Total Miembros: 2)

Arriba