The Lovely Bones (2009) m-720p Dual Latino-Inglés [Subt. Esp] (Fantástico. Drama)

Maestro Revolver

Administrador
Registro
9 Ago 2012
Mensajes
3.157
Reacciones (ptje)
54.886


The-Lovely-Bones.jpg




FichaTecnica.jpg


TÍTULO ORIGINAL: The Lovely Bones
AÑO: 2009
DURACIÓN: 118 min.
PAÍS: Nueva Zelanda
DIRECTOR: Peter Jackson
GUIÓN: Peter Jackson, Fran Walsh, Philippa Boyens (Novela: Alice Sebold)
REPARTO: Saoirse Ronan, Mark Wahlberg, Rachel Weisz, Stanley Tucci, Susan Sarandon, Michael Imperioli, Amanda Michalka
PRODUCTORA: Coproducción Nueva Zelanda-USA-GB; Paramount Pictures
GÉNERO: Fantástico. Drama. Intriga | Crimen. Años 70
imdb-logo.png
: http://www.imdb.com/title/tt0380510/

PREMIOS: 2009: Nominada al Oscar: Mejor actor de reparto (Stanley Tucci)
2009: Nominada al Globo de Oro: Mejor actor de reparto (Stanley Tucci)
2009: 2 Nominaciones Premios BAFTA: Mejor actriz (Saoirse Ronan) y actor sec. (Tucci)
2009: Critics' Choice Awards: Mejor intérprete joven (Ronan). 6 nominaciones




Sinopsis.jpg


Basada en la novela "Desde mi cielo" de Alice Sebold. Susie Salmon, una niña de catorce años, que muere asesinada, observa desde el cielo cómo cambia la vida de su familia y de sus amigos tras la terrible tragedia. Mientras un detective intenta resolver el caso, el asesino borra todas las pistas y se prepara para volver a actuar.




Trailer.jpg






Capturas.jpg


1.jpg


2.jpg


3.jpg


4.jpg


5.jpg


6.jpg


La pelicula NO tiene ninguna marca... solo colocamos el nombre de esta web en las capturas




MediaInfo.jpg


Código:
General
Format                                   : Matroska
Format version                           : Version 2
File size                                : 3.50 GiB
Duration                                 : 2h 15mn
Overall bit rate                         : 3 700 Kbps
Movie name                               : www.club-hd.com
Encoded date                             : UTC 2013-03-07 19:07:01
Writing application                      : mkvmerge v5.7.0 ('The Whirlwind') built on Jul  8 2012 20:08:51
Writing library                          : libebml v1.2.3 + libmatroska v1.3.0

Video
ID                                       : 1
Format                                   : AVC
Format/Info                              : Advanced Video Codec
Format profile                           : [email protected]
Format settings, CABAC                   : Yes
Format settings, ReFrames                : 8 frames
Codec ID                                 : V_MPEG4/ISO/AVC
Duration                                 : 2h 15mn
Bit rate                                 : 2 730 Kbps
Nominal bit rate                         : 3 000 Kbps
Width                                    : 1 280 pixels
Height                                   : 544 pixels
Display aspect ratio                     : 2.35:1
Original display aspect ratio            : 2.35:1
Frame rate mode                          : Constant
Frame rate                               : 23.976 fps
Color space                              : YUV
Chroma subsampling                       : 4:2:0
Bit depth                                : 8 bits
Scan type                                : Progressive
Bits/(Pixel*Frame)                       : 0.164
Stream size                              : 2.58 GiB (74%)
Title                                    : www.club-hd.com
Writing library                          : x264 core 120
Language                                 : English
Default                                  : Yes
Forced                                   : No
Color primaries                          : BT.709
Transfer characteristics                 : BT.709
Matrix coefficients                      : BT.709

Audio #1
ID                                       : 2
Format                                   : AC-3
Format/Info                              : Audio Coding 3
Mode extension                           : CM (complete main)
Format settings, Endianness              : Big
Codec ID                                 : A_AC3
Duration                                 : 2h 15mn
Bit rate mode                            : Constant
Bit rate                                 : 448 Kbps
Channel(s)                               : 6 channels
Channel positions                        : Front: L C R, Side: L R, LFE
Sampling rate                            : 48.0 KHz
Bit depth                                : 16 bits
Compression mode                         : Lossy
Stream size                              : 434 MiB (12%)
Title                                    : www.club-hd.com  >>  Latino
Language                                 : Spanish
Default                                  : Yes
Forced                                   : No

Audio #2
ID                                       : 3
Format                                   : AC-3
Format/Info                              : Audio Coding 3
Mode extension                           : CM (complete main)
Format settings, Endianness              : Big
Codec ID                                 : A_AC3
Duration                                 : 2h 15mn
Bit rate mode                            : Constant
Bit rate                                 : 448 Kbps
Channel(s)                               : 6 channels
Channel positions                        : Front: L C R, Side: L R, LFE
Sampling rate                            : 48.0 KHz
Bit depth                                : 16 bits
Compression mode                         : Lossy
Stream size                              : 434 MiB (12%)
Title                                    : www.club-hd.com  >>  Inglés
Language                                 : English
Default                                  : No
Forced                                   : No

Text
ID                                       : 4
Format                                   : UTF-8
Codec ID                                 : S_TEXT/UTF8
Codec ID/Info                            : UTF-8 Plain Text
Language                                 : Spanish
Default                                  : No
Forced                                   : No




Descarga.jpg




google-drive-vip.png


Tenemos TODO el material de Club-HD disponible por Mega, enlaces 100% activos y online hasta la fecha

Llévate tus cuentas Mega PRO III gratis con tu membresía VIP!
Todos los posts vivos con links de Mega.
Todo el material de Club-HD desbloqueado y sin publicidad.

Obtén más información sobre nuestras Membresías VIP



MEGA.jpg

Tenemos TODO el material de Club-HD disponible por Mega, enlaces 100% activos y online hasta la fecha

Llévate tus cuentas Mega PRO III gratis con tu membresía VIP!
Todos los posts vivos con links de Mega.
Todo el material de Club-HD desbloqueado y sin publicidad.

Obtén más información sobre nuestras Membresías VIP



UPLOADED_BANNER.png

Para ver este contenido oculto, debes dar click en el botón"Like", o cualquiera de las otras reacciones:

Me Gusta Me Gusta, Me Encanta Me Encanta, Jaja Jaja, Wow Wow, Triste Triste, Molesto Molesto

 
Última edición por un moderador:
Te hago una pregunta , vos enloqueciste ?????? S_T1 esta bestia esta realmente intratable , asi no hay disco que aguante , gracias R21 !!!!:aplausos:Tb_up3_PRT
 
Gracias por seguir compartiendo amigo y dedicarle tiempo a esta gran comunidad... Saludos y Exitos! :buen post:
 
el primer pedido hecho, muy bien revolver, cumplir algo quiere decir muchas cosas buenas de ti maestro, gracias por la peli
 
Muy interesante Muchas gracias R21 siempre lo mejor para nosotros saludos
 
:aplausos: Excelente Revolver!!! Espero ver pronto Amelie entonces! Esta me la llevo, es excelente la pelicula!
Muchas Gracias amigo, eres el mejor :dplgar:
Desc_g__PRT_PRT_PRT
 
grax, cuenta premium de toas maneras, y otro disco duro mas seria ya el 3 de 1TB, gracias de verdad por toas las buenas pelas, que nos dejas dia a dia ... se agradece MAESTRO
 
Volver