The Man from Nowhere (2010) 720p BDRip Audio Coreano [Subt. Esp] (Thriller. Acción)

Maestro Revolver

Administrador
Registro
9 Ago 2012
Mensajes
3.157
Reacciones (ptje)
54.925


The-Man-from-Nowhere.jpg




FichaTecnica.jpg


TÍTULO ORIGINAL: Ajeossi (The Man from Nowhere) (This Man)
AÑO: 2010
DURACIÓN: 119 min.
PAÍS: Corea del Sur
DIRECTOR: Lee Jeong-beom
GUIÓN: Lee Jeong-beom
REPARTO: Won Bin, Kim Sae-ron, Kim Tae-hoon, Kim Hee-won, Kim Tae-hoon, Kim Hee-won, Kim Sung-oh, Thanayong Wongtrakul, Lee Jong-pil
PRODUCTORA: Cinema Service
GÉNERO: Thriller. Acción | Crimen. Drogas. Prostitución. Yakuza & Triada
imdb-logo.png
: http://www.imdb.com/title/tt1527788/




Sinopsis.jpg


La única conexión del ex-agente especial Cha Tae-sik con el mundo es una niña que vive cerca de su casa. La madre de la pequeña trabaja para una organización mafiosa que se dedica al tráfico de drogas y le confía a él la mercancía. Cuando los traficantes se dan cuenta, secuestran a la madre y a la niña. Además, confunden a Tae-sik con un camello.




Trailer.jpg






Capturas.jpg


1.jpg


2.jpg


3.jpg


4.jpg


5.jpg


6.jpg


La pelicula NO tiene ninguna marca... solo colocamos el nombre de esta web en las capturas




MediaInfo.jpg


Código:
General
Format                                   : Matroska
Format version                           : Version 2
File size                                : 2.65 GiB
Duration                                 : 1h 59mn
Overall bit rate                         : 3 181 Kbps
Movie name                               : www.club-hd.com
Encoded date                             : UTC 2014-01-10 23:16:05
Writing application                      : mkvmerge v5.7.0 ('The Whirlwind') built on Jul  8 2012 20:08:51
Writing library                          : libebml v1.2.3 + libmatroska v1.3.0

Video
ID                                       : 1
Format                                   : AVC
Format/Info                              : Advanced Video Codec
Format profile                           : [email protected]
Format settings, CABAC                   : Yes
Format settings, ReFrames                : 9 frames
Muxing mode                              : Header stripping
Codec ID                                 : V_MPEG4/ISO/AVC
Duration                                 : 1h 59mn
Bit rate                                 : 2 734 Kbps
Width                                    : 1 280 pixels
Height                                   : 546 pixels
Display aspect ratio                     : 2.35:1
Frame rate mode                          : Constant
Frame rate                               : 23.976 fps
Color space                              : YUV
Chroma subsampling                       : 4:2:0
Bit depth                                : 8 bits
Scan type                                : Progressive
Bits/(Pixel*Frame)                       : 0.163
Stream size                              : 2.23 GiB (84%)
Title                                    : www.club-hd.com
Writing library                          : x264 core 130 r2273 b3065e6
Language                                 : Korean
Default                                  : Yes
Forced                                   : No

Audio
ID                                       : 2
Format                                   : AC-3
Format/Info                              : Audio Coding 3
Mode extension                           : CM (complete main)
Format settings, Endianness              : Big
Muxing mode                              : Header stripping
Codec ID                                 : A_AC3
Duration                                 : 1h 59mn
Bit rate mode                            : Constant
Bit rate                                 : 448 Kbps
Channel(s)                               : 6 channels
Channel positions                        : Front: L C R, Side: L R, LFE
Sampling rate                            : 48.0 KHz
Bit depth                                : 16 bits
Compression mode                         : Lossy
Stream size                              : 382 MiB (14%)
Title                                    : www.club-hd.com
Language                                 : Korean
Default                                  : Yes
Forced                                   : No

Text
ID                                       : 3
Format                                   : UTF-8
Codec ID                                 : S_TEXT/UTF8
Codec ID/Info                            : UTF-8 Plain Text
Title                                    : www.club-hd.com
Language                                 : Spanish
Default                                  : Yes
Forced                                   : No

Menu
00:00:00.000                             : en:Chapter 1
00:05:00.000                             : en:Chapter 2
00:10:00.000                             : en:Chapter 3
00:15:00.000                             : en:Chapter 4
00:20:00.000                             : en:Chapter 5
00:25:00.000                             : en:Chapter 6
00:30:00.000                             : en:Chapter 7
00:35:00.000                             : en:Chapter 8
00:40:00.000                             : en:Chapter 9
00:45:00.000                             : en:Chapter 10
00:50:00.000                             : en:Chapter 11
00:55:00.000                             : en:Chapter 12
01:00:00.000                             : en:Chapter 13
01:05:00.000                             : en:Chapter 14
01:10:00.000                             : en:Chapter 15
01:15:00.000                             : en:Chapter 16
01:20:00.000                             : en:Chapter 17
01:25:00.000                             : en:Chapter 18
01:30:00.000                             : en:Chapter 19
01:35:00.000                             : en:Chapter 20
01:40:00.000                             : en:Chapter 21
01:45:00.000                             : en:Chapter 22
01:50:00.000                             : en:Chapter 23
01:55:00.000                             : en:Chapter 24




Descarga.jpg



MEGA.jpg

Tenemos TODO el material de Club-HD disponible por Mega, enlaces 100% activos y online hasta la fecha

Llévate tus cuentas Mega PRO III gratis con tu membresía VIP!
Todos los posts vivos con links de Mega.
Todo el material de Club-HD desbloqueado y sin publicidad.

Obtén más información sobre nuestras Membresías VIP



UPLOADED_BANNER.png

Para ver este contenido oculto, debes dar click en el botón"Like", o cualquiera de las otras reacciones:

Me Gusta Me Gusta, Me Encanta Me Encanta, Jaja Jaja, Wow Wow, Triste Triste, Molesto Molesto

 
Última edición por un moderador:
:dplgar:Junto con I SAW THE DEVIL una de las mejores producciones del cine Koreano del 2010 y ahora que lo recuerdo aun me falta una......sera mi proximo pedido BossMlevol0

De tu mano, gracias a vos puedo Disfrutar de lo mejor del cine Asiatico Muchisimas GraciasPl4yb0y
 
Se ve muy buena, gracias por compartir Tb_up3
 
Volver