The Man with the Iron Fists (2012) UNRATED 1080p BDRip Dual Latino-Inglés [Subt. Esp] (Acción. Artes marciales)

Maestro Revolver

Administrador
Registro
9 Ago 2012
Mensajes
3.157
Reacciones (ptje)
54.885


The-Man-With-The-Iron-Fists.jpg




FichaTecnica.jpg


TÍTULO ORIGINAL: The Man with the Iron Fists
AÑO: 2012
DURACIÓN: 96 min.
PAÍS: USA
DIRECTOR: RZA
GUIÓN: Eli Roth, RZA
REPARTO: RZA, Russell Crowe, Lucy Liu, Byron Mann, Jamie Chung, Rick Yune, Dave Bautista, Cung Le, MC Jin, Gordon Liu, Chen Kuan Tai, Ka Yan Leung, Andrew Lin, Grace Huang, Telly Liu, Xue Jingyao, Pam Grier, Zhu Zhu, Daniel Wu, Chia Hui Liu, Andrew Ng, Yoyao Hsueh, Jin Auyeung, Brian Yang, Grace Huang, Lu Kai, Darren E. Scott, Eli Roth, Osric Chau, Celina Jade, Jin Auyeung, Dennis Chan, Terence Yin
PRODUCTORA: Arcade Pictures / Iron Fists
GÉNERO: Acción | Artes marciales. Edad Media
imdb-logo.png
: http://www.imdb.es/title/tt1258972/




Sinopsis.jpg


La acción transcurre en la China feudal y el protagonista es un forastero que se dedica a fabricar armas para los vecinos de un pequeño pueblo, pero llega un día en que debe convertirse en su protector.




Trailer.jpg






Capturas.jpg


1.jpg


2.jpg


3.jpg


4.jpg


5.jpg


6.jpg


La pelicula NO tiene ninguna marca... solo colocamos el nombre de esta web en las capturas




MediaInfo.jpg


Código:
General
Format                                   : Matroska
Format version                           : Version 2
File size                                : 8.47 GiB
Duration                                 : 1h 47mn
Overall bit rate                         : 11.3 Mbps
Movie name                               : www.club-hd.com
Encoded date                             : UTC 2013-02-03 21:16:51
Writing application                      : mkvmerge v5.7.0 ('The Whirlwind') built on Jul  8 2012 20:08:51
Writing library                          : libebml v1.2.3 + libmatroska v1.3.0

Video
ID                                       : 1
Format                                   : AVC
Format/Info                              : Advanced Video Codec
Format profile                           : [email protected]
Format settings, CABAC                   : Yes
Format settings, ReFrames                : 5 frames
Codec ID                                 : V_MPEG4/ISO/AVC
Duration                                 : 1h 47mn
Bit rate                                 : 8 686 Kbps
Width                                    : 1 920 pixels
Height                                   : 800 pixels
Display aspect ratio                     : 2.40:1
Frame rate mode                          : Constant
Frame rate                               : 23.976 fps
Color space                              : YUV
Chroma subsampling                       : 4:2:0
Bit depth                                : 8 bits
Scan type                                : Progressive
Bits/(Pixel*Frame)                       : 0.236
Stream size                              : 6.35 GiB (75%)
Title                                    : www.club-hd.com
Writing library                          : x264 core 129 r2245 bc13772
Language                                 : English
Default                                  : Yes
Forced                                   : No

Audio #1
ID                                       : 2
Format                                   : AC-3
Format/Info                              : Audio Coding 3
Mode extension                           : CM (complete main)
Format settings, Endianness              : Big
Codec ID                                 : A_AC3
Duration                                 : 1h 47mn
Bit rate mode                            : Constant
Bit rate                                 : 448 Kbps
Channel(s)                               : 6 channels
Channel positions                        : Front: L C R, Side: L R, LFE
Sampling rate                            : 48.0 KHz
Bit depth                                : 16 bits
Compression mode                         : Lossy
Stream size                              : 344 MiB (4%)
Title                                    : www.club-hd.com  >>  Latino AC3 5.1
Language                                 : Spanish
Default                                  : Yes
Forced                                   : No

Audio #2
ID                                       : 3
Format                                   : AC-3
Format/Info                              : Audio Coding 3
Mode extension                           : CM (complete main)
Format settings, Endianness              : Big
Codec ID                                 : A_AC3
Duration                                 : 1h 47mn
Bit rate mode                            : Constant
Bit rate                                 : 640 Kbps
Channel(s)                               : 6 channels
Channel positions                        : Front: L C R, Side: L R, LFE
Sampling rate                            : 48.0 KHz
Bit depth                                : 16 bits
Compression mode                         : Lossy
Stream size                              : 492 MiB (6%)
Title                                    : www.club-hd.com  >>  Inglés AC3 5.1
Language                                 : English
Default                                  : No
Forced                                   : No

Audio #3
ID                                       : 4
Format                                   : DTS
Format/Info                              : Digital Theater Systems
Mode                                     : 16
Format settings, Endianness              : Big
Codec ID                                 : A_DTS
Duration                                 : 1h 47mn
Bit rate mode                            : Constant
Bit rate                                 : 1 509 Kbps
Channel(s)                               : 6 channels
Channel positions                        : Front: L C R, Side: L R, LFE
Sampling rate                            : 48.0 KHz
Bit depth                                : 24 bits
Compression mode                         : Lossy
Stream size                              : 1.13 GiB (13%)
Title                                    : www.club-hd.com  >>  Inglés DTS 5.1
Language                                 : English
Default                                  : No
Forced                                   : No

Text #1
ID                                       : 5
Format                                   : UTF-8
Codec ID                                 : S_TEXT/UTF8
Codec ID/Info                            : UTF-8 Plain Text
Title                                    : Forzados
Language                                 : Spanish
Default                                  : Yes
Forced                                   : No

Text #2
ID                                       : 6
Format                                   : UTF-8
Codec ID                                 : S_TEXT/UTF8
Codec ID/Info                            : UTF-8 Plain Text
Language                                 : Spanish
Default                                  : No
Forced                                   : No

Menu
00:00:00.000                             : en:00:00:00.000
00:07:39.918                             : en:00:07:39.918
00:12:13.066                             : en:00:12:13.066
00:18:06.544                             : en:00:18:06.544
00:21:39.340                             : en:00:21:39.340
00:28:38.508                             : en:00:28:38.508
00:32:09.427                             : en:00:32:09.427
00:37:10.019                             : en:00:37:10.019
00:44:16.612                             : en:00:44:16.612
00:47:35.477                             : en:00:47:35.477
00:53:55.691                             : en:00:53:55.691
01:01:18.633                             : en:01:01:18.633
01:09:47.308                             : en:01:09:47.308
01:14:37.431                             : en:01:14:37.431
01:21:28.508                             : en:01:21:28.508
01:24:37.739                             : en:01:24:37.739
01:30:41.394                             : en:01:30:41.394
01:33:44.994                             : en:01:33:44.994
01:37:31.637                             : en:01:37:31.637
01:41:11.232                             : en:01:41:11.232




Descarga.jpg




google-drive-vip.png


Tenemos TODO el material de Club-HD disponible por Mega, enlaces 100% activos y online hasta la fecha

Llévate tus cuentas Mega PRO III gratis con tu membresía VIP!
Todos los posts vivos con links de Mega.
Todo el material de Club-HD desbloqueado y sin publicidad.

Obtén más información sobre nuestras Membresías VIP




MEGA.jpg

Tenemos TODO el material de Club-HD disponible por Mega, enlaces 100% activos y online hasta la fecha

Llévate tus cuentas Mega PRO III gratis con tu membresía VIP!
Todos los posts vivos con links de Mega.
Todo el material de Club-HD desbloqueado y sin publicidad.

Obtén más información sobre nuestras Membresías VIP



UPLOADED_BANNER.png

Para ver este contenido oculto, debes dar click en el botón"Like", o cualquiera de las otras reacciones:

Me Gusta Me Gusta, Me Encanta Me Encanta, Jaja Jaja, Wow Wow, Triste Triste, Molesto Molesto
 
Última edición por un moderador:
grasias por la pelicula ay que ber que tal esta
 
gracias esperando la version 720p .. lastima que no tengo un bluray disc sino lo bajo en la mayor calidad
 
Esto si que es una sorpresitaaaaa , decirte gracias ya esta quedando muy chico !!!! eres gigante R21 :dplgar::LXR:H0l4
 
...a la mierda esta no me la esperaba para nada...encima pinta terrible peliculón de Quentin...

Esperaría la 720...pero no me arriesgo xq la quiero ver hoy mismo...despues la reemplazare.

Muchas Gracias Revolver! victory
 
Volver