The Master (2012) m-720p Audio Inglés [Subt. Esp-Ing] (Drama)

Maestro Revolver

Well-known member
Miembro del Staff
Administrador
Registro
9 Ago 2012
Mensajes
3.569
Reacciones
59.354
Puntos
113

Reputation:









TÍTULO ORIGINAL: The Master
AÑO: 2012
DURACIÓN: 137 min.
PAÍS: USA
DIRECTOR: Paul Thomas Anderson
GUIÓN: Paul Thomas Anderson
REPARTO: Joaquin Phoenix, Philip Seymour Hoffman, Amy Adams, Laura Dern, Kevin J. O'Connor, Rami Malek, Jesse Plemons, Fiona Dourif, David Warshofsky, Lena Endre, Ambyr Childers
PRODUCTORA: The Weinstein Company / Annapurna Pictures / Ghoulardi Film Company
GÉNERO: Drama | Años 50
: http://www.imdb.es/title/tt1560747/

PREMIOS: 2012: Oscars: 3 nominaciones: Actor (Phoenix), Actor sec. (Hoffman), Actriz sec. (Adams)
2012: Globos de Oro: 3 Nominaciones: mejor actor (Phoenix), actor y actriz secundaria
2012: Critics Choice Awards: Mejor actor secundario (Hoffman). 7 nominaciones
2012: Premios BAFTA: 4 nominaciones, incluyendo mejor actor
2012: Festival de Venecia: Mejor director, Mejor actor (Phoenix & Hoffman), FIPRESCI
2012: Asociación de Críticos de Los Angeles: 4 premios, incluy. mejor director. 7 nom.
2012: Premios Gotham: Nominada a Mejor película
2012: Satellite Awards: 7 nominaciones
2012: Asociación de Críticos de San Francisco: Mejor película y mejor actor (Phoenix)
2012: Asociación de Críticos de Kansas: Mejor película, guión y actor sec. (Hoffman)






Drama sobre la Iglesia de la Cienciología. Lancaster Dodd (Seymour Hoffman), un intelectual brillante y de fuertes convicciones, crea una organización religiosa que empieza a hacerse popular en Estados Unidos hacia 1952. Freddie Quell (Joaquin Phoenix), un joven vagabundo, se convertirá en la mano derecha de este líder religioso. Sin embargo, cuando la secta triunfa y consigue atraer a numerosos y fervientes seguidores, a Freddie le surgirán dudas.
























La pelicula NO tiene ninguna marca... solo colocamos el nombre de esta web en las capturas






Código:
General
Format                                   : Matroska
Format version                           : Version 2
File size                                : 3.00 GiB
Duration                                 : 2h 17mn
Overall bit rate                         : 3 126 Kbps
Movie name                               : www.club-hd.com
Encoded date                             : UTC 2013-02-08 21:22:47
Writing application                      : mkvmerge v5.7.0 ('The Whirlwind') built on Jul  8 2012 20:08:51
Writing library                          : libebml v1.2.3 + libmatroska v1.3.0

Video
ID                                       : 1
Format                                   : AVC
Format/Info                              : Advanced Video Codec
Format profile                           : High@L4.1
Format settings, CABAC                   : Yes
Format settings, ReFrames                : 9 frames
Codec ID                                 : V_MPEG4/ISO/AVC
Duration                                 : 2h 17mn
Bit rate                                 : 2 677 Kbps
Width                                    : 1 280 pixels
Height                                   : 692 pixels
Display aspect ratio                     : 1.85:1
Frame rate mode                          : Constant
Frame rate                               : 23.976 fps
Color space                              : YUV
Chroma subsampling                       : 4:2:0
Bit depth                                : 8 bits
Scan type                                : Progressive
Bits/(Pixel*Frame)                       : 0.126
Stream size                              : 2.51 GiB (84%)
Title                                    : www.club-hd.com
Writing library                          : x264 core 129 r2245 bc13772
Language                                 : English
Default                                  : Yes
Forced                                   : No

Audio
ID                                       : 2
Format                                   : AC-3
Format/Info                              : Audio Coding 3
Mode extension                           : CM (complete main)
Format settings, Endianness              : Big
Codec ID                                 : A_AC3
Duration                                 : 2h 17mn
Bit rate mode                            : Constant
Bit rate                                 : 448 Kbps
Channel(s)                               : 6 channels
Channel positions                        : Front: L C R, Side: L R, LFE
Sampling rate                            : 48.0 KHz
Bit depth                                : 16 bits
Compression mode                         : Lossy
Stream size                              : 441 MiB (14%)
Title                                    : www.club-hd.com
Language                                 : English
Default                                  : Yes
Forced                                   : No

Text #1
ID                                       : 3
Format                                   : UTF-8
Codec ID                                 : S_TEXT/UTF8
Codec ID/Info                            : UTF-8 Plain Text
Language                                 : Spanish
Default                                  : Yes
Forced                                   : No

Text #2
ID                                       : 4
Format                                   : UTF-8
Codec ID                                 : S_TEXT/UTF8
Codec ID/Info                            : UTF-8 Plain Text
Language                                 : English
Default                                  : No
Forced                                   : No

Menu
00:00:00.000                             : en:Chapter 1
00:17:31.217                             : en:Chapter 2
00:36:38.446                             : en:Chapter 3
00:54:55.125                             : en:Chapter 4
01:16:39.220                             : en:Chapter 5
01:34:52.228                             : en:Chapter 6
01:47:17.848                             : en:Chapter 7
01:55:45.522                             : en:Chapter 8










Enlaces de Mega y Fireload solo disponibles para Miembros VIP

Compra tu Membresía VIP y apoya a Club-HD!

ATENCIÓN! Tenemos TODO el material de Club-HD disponible por Mega y Fireload, enlaces 100% activos y online hasta la fecha

Llévate tus cuentas Mega PRO II gratis con tu membresía VIP!
Todos los posts vivos con links de Mega y Fireload.
Todo el material de Club-HD desbloqueado y sin publicidad.

Click Aquí para más información.




Enlaces de Mega y Fireload solo disponibles para Miembros VIP

Compra tu Membresía VIP y apoya a Club-HD!

ATENCIÓN! Tenemos TODO el material de Club-HD disponible por Mega y Fireload, enlaces 100% activos y online hasta la fecha

Llévate tus cuentas Mega PRO II gratis con tu membresía VIP!
Todos los posts vivos con links de Mega y Fireload.
Todo el material de Club-HD desbloqueado y sin publicidad.

Click Aquí para más información.




Enlaces de Mega y Fireload solo disponibles para Miembros VIP

Compra tu Membresía VIP y apoya a Club-HD!

ATENCIÓN! Tenemos TODO el material de Club-HD disponible por Mega y Fireload, enlaces 100% activos y online hasta la fecha

Llévate tus cuentas Mega PRO II gratis con tu membresía VIP!
Todos los posts vivos con links de Mega y Fireload.
Todo el material de Club-HD desbloqueado y sin publicidad.

Click Aquí para más información.



Para ver este contenido oculto, debes dar click en una de las siguientes reacciones : Like Like, Love Love, Haha Haha, Wow Wow, Sad Sad, Angry Angry

 
Última edición:

RESIDENT_EVIL

Well-known member
Registro
28 Ago 2012
Mensajes
1.452
Reacciones
101
Puntos
63

Reputation:

:dplgar:Hurr4hd4nce2cl4p:sprloc: ok muy bueno bajando
 

Brainsito

Active member
Miembro VIP
Registro
29 Ago 2012
Mensajes
275
Reacciones
36
Puntos
28

Reputation:

Gracias mi hermano!!! Se va a Desc_g_
 

Mate78

Ladron de mi cerebro
Miembro del Staff
Súper Moderador
Registro
27 Ago 2012
Mensajes
1.235
Reacciones
918
Puntos
113

Reputation:

Muy buena peli , gracias Bestia !!!!:dplgar:Tb_up3:aplausos::LXR:
 

gdarias81

New member
Registro
28 Ago 2012
Mensajes
129
Reacciones
3
Puntos
0
Edad
40

Reputation:

monstruo de monstruos... mucho fenómeno... muchas gracias...
 

wolfaiki

Well-known member
Registro
28 Ago 2012
Mensajes
1.632
Reacciones
53
Puntos
48

Reputation:

Gracias por tan excelentes aportes.
 

Usuarios Que Están Viendo Este Tema (Total: 1, Miembros: 0, Invitados: 1)

Arriba