The Neverending Story (1984) 720p BDRip Dual Latino-Inglés [Subt. Esp] (Fantástico. Aventura)

Maestro Revolver

Administrador
Registro
9 Ago 2012
Mensajes
3.157
Reacciones (ptje)
54.925


The-NeverEnding-Story.jpg





FichaTecnica.jpg


TÍTULO ORIGINAL: Die unendliche Geschichte (The Neverending Story)
AÑO: 1984
DURACIÓN: 112 min.
PAÍS: Alemania del Oeste (RFA)
DIRECTOR: Wolfgang Petersen
GUIÓN: Wolfgang Petersen, Herman Weigel (Novela: Michael Ende)
REPARTO: Barret Oliver, Noah Hathaway, Moses Gunn, Tami Stronach, Patricia Hayes, Sydney Bromley, Thomas Hill, Deep Roy
PRODUCTORA: Coproduccion Alemania del Oeste-EEUU; Neue Constantin Film / Bavaria Studios / Westdeutscher Rundfunk (WDR)
GÉNERO: Fantástico. Infantil. Aventuras | Dragones. Cine familiar. Película de culto
imdb-logo.png
: http://www.imdb.com/title/tt0088323/

Premios: 1985: Academia de Sci-Fi, Fantasía y Terror (USA): Mejor actor joven (Hathaway)
1985: Fantasporto: Nominada a Mejor Película
1985: Premios del Cine Alemán: Mejor diseño de producción




Sinopsis.jpg


Escondido en el desván de su colegio, Bastian devora durante las horas de clase un libro enigmático, ”La historia interminable”, que relata la paulatina destrucción del Reino de Fantasía. Una especie de ”Nada” misteriosa destruye el país y a las criaturas que lo habitan. A medida que avanza en la lectura, Bastian se da cuenta de que la salvación de Fantasía depende de él; de que consiga entrar dentro del libro...




Trailer.jpg






Capturas.jpg


1.jpg


2.jpg


3.jpg


4.jpg


5.jpg


6.jpg


La pelicula NO tiene ninguna marca... solo colocamos el nombre de esta web en las capturas




MediaInfo.jpg


Código:
General
Format                                   : Matroska
Format version                           : Version 2
File size                                : 4.44 GiB
Duration                                 : 1h 33mn
Overall bit rate                         : 6 777 Kbps
Movie name                               : www.club-hd.com
Encoded date                             : UTC 2014-02-12 21:50:17
Writing application                      : mkvmerge v5.7.0 ('The Whirlwind') built on Jul  8 2012 20:08:51
Writing library                          : libebml v1.2.3 + libmatroska v1.3.0

Video
ID                                       : 1
Format                                   : AVC
Format/Info                              : Advanced Video Codec
Format profile                           : [email protected]
Format settings, CABAC                   : Yes
Format settings, ReFrames                : 12 frames
Muxing mode                              : Header stripping
Codec ID                                 : V_MPEG4/ISO/AVC
Duration                                 : 1h 33mn
Bit rate                                 : 6 144 Kbps
Width                                    : 1 280 pixels
Height                                   : 534 pixels
Display aspect ratio                     : 2.40:1
Frame rate mode                          : Constant
Frame rate                               : 23.976 fps
Color space                              : YUV
Chroma subsampling                       : 4:2:0
Bit depth                                : 8 bits
Scan type                                : Progressive
Bits/(Pixel*Frame)                       : 0.375
Stream size                              : 3.93 GiB (89%)
Title                                    : www.club-hd.com
Writing library                          : x264 core 116 r2074 2641b9e
Language                                 : English
Default                                  : Yes
Forced                                   : No

Audio #1
ID                                       : 2
Format                                   : AC-3
Format/Info                              : Audio Coding 3
Format profile                           : Dolby Digital
Mode extension                           : CM (complete main)
Format settings, Endianness              : Big
Muxing mode                              : Header stripping
Codec ID                                 : A_AC3
Duration                                 : 1h 33mn
Bit rate mode                            : Constant
Bit rate                                 : 192 Kbps
Channel(s)                               : 2 channels
Channel positions                        : Front: L R
Sampling rate                            : 48.0 KHz
Bit depth                                : 16 bits
Compression mode                         : Lossy
Stream size                              : 129 MiB (3%)
Title                                    : www.club-hd.com  >>  Latino
Language                                 : Spanish
Default                                  : Yes
Forced                                   : No

Audio #2
ID                                       : 3
Format                                   : AC-3
Format/Info                              : Audio Coding 3
Mode extension                           : CM (complete main)
Format settings, Endianness              : Big
Muxing mode                              : Header stripping
Codec ID                                 : A_AC3
Duration                                 : 1h 33mn
Bit rate mode                            : Constant
Bit rate                                 : 448 Kbps
Channel(s)                               : 6 channels
Channel positions                        : Front: L C R, Side: L R, LFE
Sampling rate                            : 48.0 KHz
Bit depth                                : 16 bits
Compression mode                         : Lossy
Stream size                              : 301 MiB (7%)
Title                                    : www.club-hd.com  >>  Inglés
Language                                 : English
Default                                  : No
Forced                                   : No

Text
ID                                       : 4
Format                                   : UTF-8
Codec ID                                 : S_TEXT/UTF8
Codec ID/Info                            : UTF-8 Plain Text
Language                                 : Spanish
Default                                  : No
Forced                                   : No




Descarga.jpg



MEGA.jpg

Tenemos TODO el material de Club-HD disponible por Mega, enlaces 100% activos y online hasta la fecha

Llévate tus cuentas Mega PRO III gratis con tu membresía VIP!
Todos los posts vivos con links de Mega.
Todo el material de Club-HD desbloqueado y sin publicidad.

Obtén más información sobre nuestras Membresías VIP



UPLOADED_BANNER.png

Para ver este contenido oculto, debes dar click en el botón"Like", o cualquiera de las otras reacciones:

Me Gusta Me Gusta, Me Encanta Me Encanta, Jaja Jaja, Wow Wow, Triste Triste, Molesto Molesto
 
Última edición por un moderador:
Haaa pero que excelente clásico, era una de esas que me faltaba en la colección... hasta le hice un post porque me encanta.

Gracias al usuario que la pidió y gracias Revo por subirla.

Saludos! victory
 
Volver