The Notebook (2004) m-720p Dual Latino-Inglés [Subt. Esp-Ing] (Romance. Drama)

Maestro Revolver

Well-known member
Miembro del Staff
Administrador
Registro
9 Ago 2012
Mensajes
3.569
Reacciones
59.366
Puntos
113

Reputation:









TÍTULO ORIGINAL: The Notebook
AÑO: 2004
DURACIÓN: 124 min.
PAÍS: USA
DIRECTOR: Nick Cassavetes
GUIÓN: Jeremy Leven & Jan Sardi (Novela: Nicholas Sparks)
REPARTO: Ryan Gosling, Rachel McAdams, James Garner, Sam Shepard, Gena Rowlands, James Marsden, Kevin Connolly, Joan Allen
PRODUCTORA: New Line Cinema
GÉNERO: Romance. Drama | Drama romántico. Adolescencia. Alzheimer. Años 40
http://www.imdb.com/title/tt0332280/





En una residencia de ancianos, un hombre (James Garner) lee a una mujer (Gena Rowlands) una historia de amor escrita en su viejo cuaderno de notas. Es la historia de Noah Calhoun (Ryan Gosling) y Allie Nelson (Rachel McAdams), dos jóvenes adolescentes de Carolina del Norte que, a pesar de vivir en dos ambientes sociales muy diferentes, se enamoraron profundamente y pasaron juntos un verano inolvidable, antes de ser separados, primero por sus padres, y más tarde por la guerra.
























La pelicula NO tiene ninguna marca... solo colocamos el nombre de esta web en las capturas






Código:
General
Format                           : Matroska
Format version                   : Version 2
File size                        : 3.32 GiB
Duration                         : 2h 3mn
Overall bit rate                 : 3 839 Kbps
Movie name                       : www.club-hd.com
Encoded date                     : UTC 2012-10-10 01:16:44
Writing application              : mkvmerge v4.4.0 ('Die Wiederkehr') built on Oct 31 2010 21:52:48
Writing library                  : libebml v1.0.0 + libmatroska v1.0.0

Video
ID                               : 1
Format                           : AVC
Format/Info                      : Advanced Video Codec
Format profile                   : High@L4.1
Format settings, CABAC           : Yes
Format settings, ReFrames        : 11 frames
Muxing mode                      : Header stripping
Codec ID                         : V_MPEG4/ISO/AVC
Duration                         : 2h 3mn
Bit rate                         : 2 802 Kbps
Width                            : 1 280 pixels
Height                           : 544 pixels
Display aspect ratio             : 2.35:1
Frame rate                       : 23.976 fps
Color space                      : YUV
Chroma subsampling               : 4:2:0
Bit depth                        : 8 bits
Scan type                        : Progressive
Bits/(Pixel*Frame)               : 0.168
Stream size                      : 2.42 GiB (73%)
Title                            : www.club-hd.com
Writing library                  : x264 core 125 r2200 999b753
Language                         : English
Default                          : Yes
Forced                           : No

Audio #1
ID                               : 2
Format                           : AC-3
Format/Info                      : Audio Coding 3
Mode extension                   : CM (complete main)
Muxing mode                      : Header stripping
Codec ID                         : A_AC3
Duration                         : 2h 3mn
Bit rate mode                    : Constant
Bit rate                         : 320 Kbps
Channel(s)                       : 2 channels
Channel positions                : Front: L R
Sampling rate                    : 48.0 KHz
Bit depth                        : 16 bits
Compression mode                 : Lossy
Delay relative to video          : 12ms
Stream size                      : 283 MiB (8%)
Title                            : www.club-hd.com  >>  Latino
Language                         : Spanish
Default                          : Yes
Forced                           : No

Audio #2
ID                               : 3
Format                           : AC-3
Format/Info                      : Audio Coding 3
Mode extension                   : CM (complete main)
Muxing mode                      : Header stripping
Codec ID                         : A_AC3
Duration                         : 2h 3mn
Bit rate mode                    : Constant
Bit rate                         : 640 Kbps
Channel(s)                       : 6 channels
Channel positions                : Front: L C R, Side: L R, LFE
Sampling rate                    : 48.0 KHz
Bit depth                        : 16 bits
Compression mode                 : Lossy
Stream size                      : 567 MiB (17%)
Title                            : www.club-hd.com  >>  Inglés
Language                         : English
Default                          : No
Forced                           : No

Text #1
ID                               : 4
Format                           : UTF-8
Codec ID                         : S_TEXT/UTF8
Codec ID/Info                    : UTF-8 Plain Text
Language                         : Spanish
Default                          : No
Forced                           : No

Text #2
ID                               : 5
Format                           : UTF-8
Codec ID                         : S_TEXT/UTF8
Codec ID/Info                    : UTF-8 Plain Text
Language                         : English
Default                          : No
Forced                           : No

Menu
00:00:00.000                     : en:Main Titles
00:03:17.489                     : en:No One Special
00:05:08.683                     : en:First Sight
00:10:40.849                     : en:The Late Show
00:19:12.985                     : en:An Improbable Romance
00:28:18.322                     : en:Dream House
00:36:51.084                     : en:"He's Not For You"
00:43:15.885                     : en:A World Of Change
00:54:04.408                     : en:Noah Returns
00:57:43.794                     : en:Labor Of Love
01:01:35.734                     : en:The Past Returns
01:04:52.764                     : en:Lost And Found
01:15:15.511                     : en:Lake Outing
01:21:26.590                     : en:Out Of The Rain
01:25:21.199                     : en:She's The One
01:28:30.722                     : en:Morning Drive
01:35:35.313                     : en:"What Do You Want?"
01:42:15.338                     : en:Happily Ever After
01:51:18.672                     : en:"I'll Never Leave You"
01:58:20.302                     : en:End Credits










Enlaces de Mega y Fireload solo disponibles para Miembros VIP

Compra tu Membresía VIP y apoya a Club-HD!

ATENCIÓN! Tenemos TODO el material de Club-HD disponible por Mega y Fireload, enlaces 100% activos y online hasta la fecha

Llévate tus cuentas Mega PRO II gratis con tu membresía VIP!
Todos los posts vivos con links de Mega y Fireload.
Todo el material de Club-HD desbloqueado y sin publicidad.

Click Aquí para más información.




Enlaces de Mega y Fireload solo disponibles para Miembros VIP

Compra tu Membresía VIP y apoya a Club-HD!

ATENCIÓN! Tenemos TODO el material de Club-HD disponible por Mega y Fireload, enlaces 100% activos y online hasta la fecha

Llévate tus cuentas Mega PRO II gratis con tu membresía VIP!
Todos los posts vivos con links de Mega y Fireload.
Todo el material de Club-HD desbloqueado y sin publicidad.

Click Aquí para más información.



Enlaces de Mega y Fireload solo disponibles para Miembros VIP

Compra tu Membresía VIP y apoya a Club-HD!

ATENCIÓN! Tenemos TODO el material de Club-HD disponible por Mega y Fireload, enlaces 100% activos y online hasta la fecha

Llévate tus cuentas Mega PRO II gratis con tu membresía VIP!
Todos los posts vivos con links de Mega y Fireload.
Todo el material de Club-HD desbloqueado y sin publicidad.

Click Aquí para más información.



Para ver este contenido oculto, debes dar click en una de las siguientes reacciones : Like Like, Love Love, Haha Haha, Wow Wow, Sad Sad, Angry Angry
 
Última edición:

Yonatan

Admin
Miembro del Staff
Administrador
Registro
27 Ago 2012
Mensajes
1.768
Reacciones
3.730
Puntos
113
Edad
28
Ubicación
Chile, Sexta Región

Reputation:

Revolver21 no sabia como preguntarte cuando subirias esta pelicula la busque por todos lados y al fin la subes se agradece mucho tu aporte gracias men te pasaste Desc_g_
 

trailblazer 2.0

Well-known member
Miembro del Staff
Súper Moderador
Registro
28 Ago 2012
Mensajes
2.787
Reacciones
1.120
Puntos
113
Ubicación
Ciudad Macross

Reputation:

mmmta ya me la pidio mi viejaaaaa, a la lista de espera, despues de las de rambo, lethal weapon(las 4) y alguna y algunas otras jejejje
 

naviantra

Member
Registro
27 Ago 2012
Mensajes
224
Reacciones
8
Puntos
18
Edad
31

Reputation:

Hermosa pelicula, gracias, alguien que me pase el Facebook de la pagina porfavor y porfavor si puedieras subir la de chaplin 1992 con Robert Downey jr. Gracias.
 

Nytrux

Active member
Registro
27 Ago 2012
Mensajes
389
Reacciones
46
Puntos
28

Reputation:

Me encanta la variedad en las películas, no todo es The Avengers (de la cual soy un fan). Esta peli la vi hace mucho y me gustó, tiene una buena historia. :dplgar:
 

RIDDECK

New member
Registro
27 Ago 2012
Mensajes
39
Reacciones
0
Puntos
0

Reputation:

la pelicula es buena pero lo que no me gusta es el final, aun asi gracias :D ahh y ojala pudieran subir mulan 1 y 2 pa mi hija :dplgar:
 

Usuarios Que Están Viendo Este Tema (Total: 1, Miembros: 0, Invitados: 1)

Arriba