The Odd Life of Timothy Green (2012) m-720p Dual Latino-Inglés [Subt. Esp-Ing] (Fantástico. Drama)

Maestro Revolver

Well-known member
Miembro del Staff
Administrador
Registro
9 Ago 2012
Mensajes
3.569
Reacciones
59.346
Puntos
113

Reputation:









TÍTULO ORIGINAL: The Odd Life of Timothy Green
AÑO: 2012
DURACIÓN: 105 min.
PAÍS: USA
DIRECTOR: Peter Hedges
GUIÓN: Peter Hedges (Historia: Ahmet Zappa)
REPARTO: Jennifer Garner, Joel Edgerton, Ron Livingston, Dianne Wiest, Rosemarie DeWitt, Michael Arden, Common, Lois Smith, Rhoda Griffis, Sharon Morris, Lin-Manuel Miranda, Odeya Rush
PRODUCTORA: Monsterfoot Productions / Scott Sanders Productions / Walt Disney Productions
GÉNERO: Fantástico. Drama | Música. Familia
http://www.imdb.com/title/tt1462769/





“La extraña vida de Timothy Green” es una historia mágica e inspiradora acerca de una pareja felizmente casada, Cindy y Jim Green (Jennifer Garner y Joel Edgerton), que no ve la hora de formar una familia y vive soñando cómo sería su hijo. Cuando, súbitamente, el joven Timothy (Cameron Adams) aparece en la puerta de su casa durante una noche de tormenta, Cindy, Jim y el pequeño pueblo de Stanleyville descubren que a veces lo inesperado puede brindar alguno de los mejores regalos de la vida.
























La pelicula NO tiene ninguna marca... solo colocamos el nombre de esta web en las capturas






Código:
General
Format                                   : Matroska
Format version                           : Version 2
File size                                : 2.77 GiB
Duration                                 : 1h 44mn
Overall bit rate                         : 3 784 Kbps
Movie name                               : www.club-hd.com
Encoded date                             : UTC 2012-11-24 12:03:07
Writing application                      : mkvmerge v5.7.0 ('The Whirlwind') built on Jul  8 2012 20:08:51
Writing library                          : libebml v1.2.3 + libmatroska v1.3.0

Video
ID                                       : 1
Format                                   : AVC
Format/Info                              : Advanced Video Codec
Format profile                           : High@L4.1
Format settings, CABAC                   : Yes
Format settings, ReFrames                : 9 frames
Codec ID                                 : V_MPEG4/ISO/AVC
Duration                                 : 1h 44mn
Bit rate                                 : 2 703 Kbps
Width                                    : 1 280 pixels
Height                                   : 694 pixels
Display aspect ratio                     : 1.85:1
Frame rate mode                          : Constant
Frame rate                               : 23.976 fps
Color space                              : YUV
Chroma subsampling                       : 4:2:0
Bit depth                                : 8 bits
Scan type                                : Progressive
Bits/(Pixel*Frame)                       : 0.127
Stream size                              : 1.92 GiB (69%)
Title                                    : www.club-hd.com
Writing library                          : x264 core 128 r2216 198a7ea
Language                                 : English
Default                                  : Yes
Forced                                   : No

Audio #1
ID                                       : 2
Format                                   : AC-3
Format/Info                              : Audio Coding 3
Mode extension                           : CM (complete main)
Format settings, Endianness              : Big
Codec ID                                 : A_AC3
Duration                                 : 1h 44mn
Bit rate mode                            : Constant
Bit rate                                 : 640 Kbps
Channel(s)                               : 6 channels
Channel positions                        : Front: L C R, Side: L R, LFE
Sampling rate                            : 48.0 KHz
Bit depth                                : 16 bits
Compression mode                         : Lossy
Stream size                              : 479 MiB (17%)
Title                                    : www.club-hd.com  >>  Latino
Language                                 : Spanish
Default                                  : Yes
Forced                                   : No

Audio #2
ID                                       : 3
Format                                   : AC-3
Format/Info                              : Audio Coding 3
Mode extension                           : CM (complete main)
Format settings, Endianness              : Big
Codec ID                                 : A_AC3
Duration                                 : 1h 44mn
Bit rate mode                            : Constant
Bit rate                                 : 448 Kbps
Channel(s)                               : 6 channels
Channel positions                        : Front: L C R, Side: L R, LFE
Sampling rate                            : 48.0 KHz
Bit depth                                : 16 bits
Compression mode                         : Lossy
Stream size                              : 335 MiB (12%)
Title                                    : www.club-hd.com  >>  Inglés
Language                                 : English
Default                                  : No
Forced                                   : No

Text #1
ID                                       : 4
Format                                   : UTF-8
Codec ID                                 : S_TEXT/UTF8
Codec ID/Info                            : UTF-8 Plain Text
Title                                    : Forzados
Language                                 : Spanish
Default                                  : Yes
Forced                                   : No

Text #2
ID                                       : 5
Format                                   : UTF-8
Codec ID                                 : S_TEXT/UTF8
Codec ID/Info                            : UTF-8 Plain Text
Language                                 : Spanish
Default                                  : No
Forced                                   : No

Text #3
ID                                       : 6
Format                                   : UTF-8
Codec ID                                 : S_TEXT/UTF8
Codec ID/Info                            : UTF-8 Plain Text
Language                                 : English
Default                                  : No
Forced                                   : No

Menu
00:00:00.000                             : en:Chapter 1
00:07:41.670                             : en:Chapter 2
00:13:27.140                             : en:Chapter 3
00:19:17.823                             : en:Chapter 4
00:26:26.502                             : en:Chapter 5
00:31:36.186                             : en:Chapter 6
00:34:57.804                             : en:Chapter 7
00:38:03.114                             : en:Chapter 8
00:41:12.970                             : en:Chapter 9
00:45:14.253                             : en:Chapter 10
00:49:19.874                             : en:Chapter 11
00:57:21.521                             : en:Chapter 12
01:04:20.565                             : en:Chapter 13
01:09:59.612                             : en:Chapter 14
01:13:32.992                             : en:Chapter 15
01:21:51.990                             : en:Chapter 16
01:26:45.575                             : en:Chapter 17
01:31:30.151                             : en:Chapter 18
01:36:31.160                             : en:Chapter 19
01:39:48.357                             : en:Chapter 20




Sin Contraseña | Simple Extracción





Links Intercambiables





Enlaces de Mega y Fireload solo disponibles para Miembros VIP

Compra tu Membresía VIP y apoya a Club-HD!

ATENCIÓN! Tenemos TODO el material de Club-HD disponible por Mega y Fireload, enlaces 100% activos y online hasta la fecha

Llévate tus cuentas Mega PRO II gratis con tu membresía VIP!
Todos los posts vivos con links de Mega y Fireload.
Todo el material de Club-HD desbloqueado y sin publicidad.

Click Aquí para más información.



Enlaces de Mega y Fireload solo disponibles para Miembros VIP

Compra tu Membresía VIP y apoya a Club-HD!

ATENCIÓN! Tenemos TODO el material de Club-HD disponible por Mega y Fireload, enlaces 100% activos y online hasta la fecha

Llévate tus cuentas Mega PRO II gratis con tu membresía VIP!
Todos los posts vivos con links de Mega y Fireload.
Todo el material de Club-HD desbloqueado y sin publicidad.

Click Aquí para más información.


Para ver este contenido oculto, debes dar click en una de las siguientes reacciones : Like Like, Love Love, Haha Haha, Wow Wow, Sad Sad, Angry Angry



 
Última edición:

Usuarios Que Están Viendo Este Tema (Total: 1, Miembros: 0, Invitados: 1)

Arriba