• Este aviso va dirigido a todos los nuevos miembros recien llegados a Club-HD. Les recordamos que la direccion URL de este sitio web es , asi que deben acceder únicamente por esta URL. Sean todos bienvenidos al Club!

The Owners (2020) 1080p AMZN WEB-DL Inglés [Subt. Esp] (Terror. Thriller)

Dante Inferno

🔥Dante Inferno🔥
Miembro del Staff
Moderador
Uploader
Registrado
24 May 2016
Mensajes
618
Puntos de reacción
12,982
Puntos
93
Ubicación
Argentina
Sitio web
club-hd.com




SINOPSIS

Un grupo de amigos cree que encuentran un blanco fácil en una casa vacía con una caja fuerte llena de efectivo. Pero cuando los propietarios, una pareja de ancianos, llegan temprano a casa, las cosas cambian repentinamente.

MÁS INFORMACIÓN




TRAILER



CAPTURAS




MEDIAINFO

General
Complete name : The Owners (2020) 1080p AMZN WEB-DL Inglés [Subt. Esp].mkv
Format : Matroska
Format version : Version 4
File size : 4.84 GiB
Duration : 1 h 31 min
Overall bit rate : 7 532 kb/s
Movie name : The Owners (2020) 1080p AMZN WEB-DL Inglés [Subt. Esp] [www.club-hd.com]
Encoded date : UTC 2020-09-08 20:07:01
Writing application : mkvmerge v49.0.0 ('Sick Of Losing Soulmates') 64-bit
Writing library : libebml v1.4.0 + libmatroska v1.6.1

Video
ID : 1
Format : AVC
Format/Info : Advanced Video Codec
Format profile : High@L4
Format settings : CABAC / 4 Ref Frames
Format settings, CABAC : Yes
Format settings, Reference frames : 4 frames
Codec ID : V_MPEG4/ISO/AVC
Duration : 1 h 31 min
Bit rate mode : Constant
Bit rate : 6 890 kb/s
Nominal bit rate : 10 000 kb/s
Width : 1 920 pixels
Height : 816 pixels
Display aspect ratio : 2.35:1
Frame rate mode : Constant
Frame rate : 24.000 FPS
Color space : YUV
Chroma subsampling : 4:2:0
Bit depth : 8 bits
Scan type : Progressive
Bits/(Pixel*Frame) : 0.183
Stream size : 4.43 GiB (91%)
Title : The Owners (2020) 1080p AMZN WEB-DL Inglés [Subt. Esp]
Language : English
Default : Yes
Forced : No
Color range : Limited
Color primaries : BT.709
Transfer characteristics : BT.709
Matrix coefficients : BT.709

Audio
ID : 2
Format : E-AC-3
Format/Info : Enhanced AC-3
Commercial name : Dolby Digital Plus
Codec ID : A_EAC3
Duration : 1 h 31 min
Bit rate mode : Constant
Bit rate : 640 kb/s
Channel(s) : 6 channels
Channel layout : L R C LFE Ls Rs
Sampling rate : 48.0 kHz
Frame rate : 31.250 FPS (1536 SPF)
Compression mode : Lossy
Stream size : 421 MiB (8%)
Title : Inglés
Language : English
Service kind : Complete Main
Default : Yes
Forced : No

Text
ID : 3
Format : UTF-8
Codec ID : S_TEXT/UTF8
Codec ID/Info : UTF-8 Plain Text
Duration : 1 h 28 min
Bit rate : 55 b/s
Count of elements : 1367
Stream size : 36.2 KiB (0%)
Title : Subtítulos Español
Language : Spanish
Default : Yes
Forced : No


CONTRASEÑA





Disponible
⭐¡VER ONLINE y DESCARGAR 1 LINK!⭐


Enlaces de Mega y Google Drive solo disponibles para Miembros VIP

Compra tu Membresía VIP y apoya a Club-HD!

ATENCIÓN! Tenemos TODO el material de Club-HD disponible por Mega y Google Drive, enlaces 100% activos y online hasta la fecha

Llévate tus cuentas Mega PRO II gratis con tu membresía VIP!
Todos los posts vivos con links de Mega y Google Drive.
Todo el material de Club-HD desbloqueado y sin publicidad.

Click Aquí para más información.

DESCARGAR



Enlaces de Mega y Google Drive solo disponibles para Miembros VIP

Compra tu Membresía VIP y apoya a Club-HD!

ATENCIÓN! Tenemos TODO el material de Club-HD disponible por Mega y Google Drive, enlaces 100% activos y online hasta la fecha

Llévate tus cuentas Mega PRO II gratis con tu membresía VIP!
Todos los posts vivos con links de Mega y Google Drive.
Todo el material de Club-HD desbloqueado y sin publicidad.

Click Aquí para más información.



Para ver este contenido oculto, debes dar click en una de las siguientes reacciones: Like Like, Love Love, Haha Haha, Wow Wow, Sad Sad, Angry Angry



Para ver este contenido oculto, debes dar click en una de las siguientes reacciones: Like Like, Love Love, Haha Haha, Wow Wow, Sad Sad, Angry Angry



Para ver este contenido oculto, debes dar click en una de las siguientes reacciones: Like Like, Love Love, Haha Haha, Wow Wow, Sad Sad, Angry Angry



Para ver este contenido oculto, debes dar click en una de las siguientes reacciones: Like Like, Love Love, Haha Haha, Wow Wow, Sad Sad, Angry Angry
 

galiel38

Active member
Registrado
28 Sep 2012
Mensajes
708
Puntos de reacción
86
Puntos
28
Edad
32
Muchas gracias vamos viendo que tal esta.
 

rachi

Active member
Registrado
21 Jul 2018
Mensajes
689
Puntos de reacción
83
Puntos
28
Gracias por el aporte
 

jmendoza

Member
Miembro VIP
Registrado
28 Jul 2020
Mensajes
229
Puntos de reacción
6
Puntos
18
Gracias por la película
agregado a la cola de descargas
saludos desde Perú
 

cripp

Well-known member
Registrado
27 Ago 2012
Mensajes
8,196
Puntos de reacción
495
Puntos
113
Gracias por compartir
 

Usuarios Que Están Viendo Este Tema (Total: 1, Miembros: 0, Invitados: 1)

Arriba