The Package (2012) m-720p Audio Inglés [Subt. Esp] (Acción)

Maestro Revolver

Administrador
Registro
9 Ago 2012
Mensajes
3.157
Reacciones (ptje)
54.925


The-Package.jpg




FichaTecnica.jpg


TÍTULO ORIGINAL: The Package
AÑO: 2012
DURACIÓN: 93 min.
PAÍS: USA
DIRECTOR: Jesse V. Johnson
GUIÓN: Derek Kolstad
REPARTO: Steve Austin, Dolph Lundgren, Darren Shahlavi
PRODUCTORA: Caliber Media Company / Lighthouse Pictures / Motion Picture Corporation of America (MPCA)
GÉNERO: Acción
imdb-logo.png
: http://www.imdb.es/title/tt1884457/




Sinopsis.jpg


El hombre de confianza de un señor del crimen, debe entregar un maletín que contiene en su interior algo muy importante.Pero esté se verá perseguido por una horda de bandidos.




Trailer.jpg






Capturas.jpg


1.jpg


2.jpg


3.jpg


4.jpg


5.jpg


6.jpg


La pelicula NO tiene ninguna marca... solo colocamos el nombre de esta web en las capturas




MediaInfo.jpg


Código:
General
Format                                   : Matroska
Format version                           : Version 2
File size                                : 2.30 GiB
Duration                                 : 1h 35mn
Overall bit rate                         : 3 455 Kbps
Movie name                               : www.club-hd.com
Encoded date                             : UTC 2013-02-08 22:44:51
Writing application                      : mkvmerge v5.7.0 ('The Whirlwind') built on Jul  8 2012 20:08:51
Writing library                          : libebml v1.2.3 + libmatroska v1.3.0

Video
ID                                       : 1
Format                                   : AVC
Format/Info                              : Advanced Video Codec
Format profile                           : [email protected]
Format settings, CABAC                   : Yes
Format settings, ReFrames                : 9 frames
Codec ID                                 : V_MPEG4/ISO/AVC
Duration                                 : 1h 35mn
Bit rate                                 : 2 815 Kbps
Width                                    : 1 280 pixels
Height                                   : 720 pixels
Display aspect ratio                     : 16:9
Frame rate mode                          : Constant
Frame rate                               : 23.976 fps
Color space                              : YUV
Chroma subsampling                       : 4:2:0
Bit depth                                : 8 bits
Scan type                                : Progressive
Bits/(Pixel*Frame)                       : 0.127
Stream size                              : 1.83 GiB (79%)
Title                                    : www.club-hd.com
Writing library                          : x264 core 129 r2245 bc13772
Language                                 : English
Default                                  : Yes
Forced                                   : No

Audio
ID                                       : 2
Format                                   : AC-3
Format/Info                              : Audio Coding 3
Mode extension                           : CM (complete main)
Format settings, Endianness              : Big
Codec ID                                 : A_AC3
Duration                                 : 1h 35mn
Bit rate mode                            : Constant
Bit rate                                 : 640 Kbps
Channel(s)                               : 6 channels
Channel positions                        : Front: L C R, Side: L R, LFE
Sampling rate                            : 48.0 KHz
Bit depth                                : 16 bits
Compression mode                         : Lossy
Stream size                              : 437 MiB (19%)
Title                                    : www.club-hd.com
Language                                 : English
Default                                  : Yes
Forced                                   : No

Text
ID                                       : 3
Format                                   : UTF-8
Codec ID                                 : S_TEXT/UTF8
Codec ID/Info                            : UTF-8 Plain Text
Language                                 : Spanish
Default                                  : Yes
Forced                                   : No

Menu
00:00:00.000                             : en:Chapter 1
00:08:08.321                             : en:Chapter 2
00:21:54.813                             : en:Chapter 3
00:27:08.210                             : en:Chapter 4
00:34:05.794                             : en:Chapter 5
00:41:18.685                             : en:Chapter 6
00:49:21.834                             : en:Chapter 7
00:55:43.590                             : en:Chapter 8
01:01:51.374                             : en:Chapter 9
01:13:16.726                             : en:Chapter 10
01:20:55.559                             : en:Chapter 11
01:31:21.184                             : en:Chapter 12




Descarga.jpg




google-drive-vip.png


Tenemos TODO el material de Club-HD disponible por Mega, enlaces 100% activos y online hasta la fecha

Llévate tus cuentas Mega PRO III gratis con tu membresía VIP!
Todos los posts vivos con links de Mega.
Todo el material de Club-HD desbloqueado y sin publicidad.

Obtén más información sobre nuestras Membresías VIP




MEGA.jpg

Tenemos TODO el material de Club-HD disponible por Mega, enlaces 100% activos y online hasta la fecha

Llévate tus cuentas Mega PRO III gratis con tu membresía VIP!
Todos los posts vivos con links de Mega.
Todo el material de Club-HD desbloqueado y sin publicidad.

Obtén más información sobre nuestras Membresías VIP



UPLOADED_BANNER.png

Para ver este contenido oculto, debes dar click en el botón"Like", o cualquiera de las otras reacciones:

Me Gusta Me Gusta, Me Encanta Me Encanta, Jaja Jaja, Wow Wow, Triste Triste, Molesto Molesto

 
Última edición por un moderador:
Una de ACCIONN EXCELENTE MASTER!!!!!!! Y GRACIASPl4yb0y
 
Volver