The Pact (2012) m-720p Audio Inglés [Subt. Esp-Ing] (Terror. Thriller)

Maestro Revolver

Well-known member
Miembro del Staff
Administrador
Registro
9 Ago 2012
Mensajes
3.569
Reacciones
59.341
Puntos
113

Reputation:









TÍTULO ORIGINAL: The Pact
AÑO: 2012
DURACIÓN: 95 min.
PAÍS: USA
DIRECTOR: Nicholas McCarthy
GUIÓN: Nicholas McCarthy
REPARTO: Caity Lotz, Casper Van Dien, Agnes Bruckner, Sam Ball, Haley Hudson, Kathleen Rose Perkins
PRODUCTORA: Preferred Content
GÉNERO: Terror. Thriller. Intriga | Casas encantadas
http://www.imdb.com/title/tt2040560/





The Pact nos cuenta como dos hermanas, Nicole y Annie, vuelven a la casa de su infancia al fallecer la madre para el funeral. Mientras pasan la noche en la casa, las hermanas sentirán una presencia misteriosa. Los ruidos las asustarán durante toda la noche, los objetos se mueven y hay una foto que aparece de una mujer desconocida junto a su madre. Annie empieza a experimentar una serie de intensos y perturbadores sueños, visiones que la llevan a destapar algo terrible sobre el pasado de su madre, que finalmente se acabará revelando. Adaptación al largometraje de un corto homónimo dirigido por el director en 2011.
























La pelicula NO tiene ninguna marca... solo colocamos el nombre de esta web en las capturas






Código:
General
Format                           : Matroska
Format version                   : Version 2
File size                        : 1.90 GiB
Duration                         : 1h 28mn
Overall bit rate                 : 3 063 Kbps
Movie name                       : www.club-hd.com
Encoded date                     : UTC 2012-10-07 23:51:27
Writing application              : mkvmerge v4.4.0 ('Die Wiederkehr') built on Oct 31 2010 21:52:48
Writing library                  : libebml v1.0.0 + libmatroska v1.0.0

Video
ID                               : 1
Format                           : AVC
Format/Info                      : Advanced Video Codec
Format profile                   : High@L4.1
Format settings, CABAC           : Yes
Format settings, ReFrames        : 8 frames
Muxing mode                      : Header stripping
Codec ID                         : V_MPEG4/ISO/AVC
Duration                         : 1h 28mn
Bit rate                         : 2 615 Kbps
Width                            : 1 280 pixels
Height                           : 690 pixels
Display aspect ratio             : 1.855
Frame rate                       : 23.976 fps
Color space                      : YUV
Chroma subsampling               : 4:2:0
Bit depth                        : 8 bits
Scan type                        : Progressive
Bits/(Pixel*Frame)               : 0.123
Stream size                      : 1.59 GiB (83%)
Title                            : www.club-hd.com
Writing library                  : x264 core 128 r2216 198a7ea
Language                         : English
Default                          : Yes
Forced                           : No

Audio
ID                               : 2
Format                           : AC-3
Format/Info                      : Audio Coding 3
Mode extension                   : CM (complete main)
Muxing mode                      : Header stripping
Codec ID                         : A_AC3
Duration                         : 1h 28mn
Bit rate mode                    : Constant
Bit rate                         : 448 Kbps
Channel(s)                       : 6 channels
Channel positions                : Front: L C R, Side: L R, LFE
Sampling rate                    : 48.0 KHz
Bit depth                        : 16 bits
Compression mode                 : Lossy
Stream size                      : 285 MiB (15%)
Title                            : www.club-hd.com
Language                         : English
Default                          : Yes
Forced                           : No

Text #1
ID                               : 3
Format                           : UTF-8
Codec ID                         : S_TEXT/UTF8
Codec ID/Info                    : UTF-8 Plain Text
Language                         : Spanish
Default                          : Yes
Forced                           : No

Text #2
ID                               : 4
Format                           : UTF-8
Codec ID                         : S_TEXT/UTF8
Codec ID/Info                    : UTF-8 Plain Text
Language                         : English
Default                          : No
Forced                           : No










Enlaces de Mega y Fireload solo disponibles para Miembros VIP

Compra tu Membresía VIP y apoya a Club-HD!

ATENCIÓN! Tenemos TODO el material de Club-HD disponible por Mega y Fireload, enlaces 100% activos y online hasta la fecha

Llévate tus cuentas Mega PRO II gratis con tu membresía VIP!
Todos los posts vivos con links de Mega y Fireload.
Todo el material de Club-HD desbloqueado y sin publicidad.

Click Aquí para más información.




Enlaces de Mega y Fireload solo disponibles para Miembros VIP

Compra tu Membresía VIP y apoya a Club-HD!

ATENCIÓN! Tenemos TODO el material de Club-HD disponible por Mega y Fireload, enlaces 100% activos y online hasta la fecha

Llévate tus cuentas Mega PRO II gratis con tu membresía VIP!
Todos los posts vivos con links de Mega y Fireload.
Todo el material de Club-HD desbloqueado y sin publicidad.

Click Aquí para más información.


Para ver este contenido oculto, debes dar click en una de las siguientes reacciones : Like Like, Love Love, Haha Haha, Wow Wow, Sad Sad, Angry Angry

 
Última edición:

angumon30

Active member
Registro
27 Ago 2012
Mensajes
1.093
Reacciones
15
Puntos
38
Edad
41

Reputation:

para mi esposa, en lo personal a mi no me guatan de terror. pero siempre las veo, donde manda capitan.
 

Usuarios Que Están Viendo Este Tema (Total: 1, Miembros: 0, Invitados: 1)

Arriba