The Perks of Being a Wallflower (2012) m-720p Dual Latino-Inglés [Subt. Esp-Ing] (Drama)

Maestro Revolver

Administrador
Registro
9 Ago 2012
Mensajes
3.157
Reacciones (ptje)
55.041


The-Perks-of-Being-a-Wallflower.jpg




FichaTecnica.jpg


TÍTULO ORIGINAL: The Perks of Being a Wallflower
AÑO: 2012
DURACIÓN: 103 min.
PAÍS: USA
DIRECTOR: Stephen Chbosky
GUIÓN: Stephen Chbosky (Libro: Stephen Chbosky)
REPARTO: Logan Lerman, Emma Watson, Ezra Miller, Mae Whitman, Kate Walsh, Dylan McDermott, Melanie Lynskey, Nina Dobrev, Johnny Simmons, Joan Cusack, Paul Rudd, Nicholas Braun, Reece Thompson, Julia Garner, Tom Savini, Adam Hagenbuch, Zane Holtz
PRODUCTORA: Mr. Mudd / Summit Entertainment
GÉNERO: Drama | Drama romántico. Adolescencia. Amistad. Homosexualidad. Colegios & Universidad
imdb-logo.png
: http://www.imdb.es/title/tt1659337/

PREMIOS: 2012: Independent Spirit Awards: Nominada a Mejor ópera prima
2012: National Board of Review (NBR): 10 mejores películas del año
2012: Asociación de Críticos de Boston: Mejor actor secundario (Ezra Miller)
2012: Critics Choice Awards: Nominada a mejor actor joven (Lerman) y guión adaptado




Sinopsis.jpg


Charlie (Logan Lerman), un joven tímido y marginado, escribe una serie de cartas a una persona sin identificar en las que aborda asuntos como la amistad, los conflictos familiares, las primeras citas, el sexo o las drogas. El protagonista tendrá que afrontar el primer amor (Emma Watson), el suicidio de su primer amigo y su propia enfermedad mental. Al mismo tiempo, lucha por encontrar un grupo de personas con las que pueda encajar y sentirse a gusto.




Trailer.jpg






Capturas.jpg


1.jpg


2.jpg


3.jpg


4.jpg


5.jpg


6.jpg


La pelicula NO tiene ninguna marca... solo colocamos el nombre de esta web en las capturas




MediaInfo.jpg


Código:
General
Format                                   : Matroska
Format version                           : Version 2
File size                                : 2.76 GiB
Duration                                 : 1h 42mn
Overall bit rate                         : 3 851 Kbps
Movie name                               : www.club-hd.com
Encoded date                             : UTC 2013-02-07 04:41:56
Writing application                      : mkvmerge v5.7.0 ('The Whirlwind') built on Jul  8 2012 20:08:51
Writing library                          : libebml v1.2.3 + libmatroska v1.3.0

Video
ID                                       : 1
Format                                   : AVC
Format/Info                              : Advanced Video Codec
Format profile                           : [email protected]
Format settings, CABAC                   : Yes
Format settings, ReFrames                : 9 frames
Codec ID                                 : V_MPEG4/ISO/AVC
Duration                                 : 1h 42mn
Bit rate                                 : 2 763 Kbps
Width                                    : 1 280 pixels
Height                                   : 720 pixels
Display aspect ratio                     : 16:9
Frame rate mode                          : Constant
Frame rate                               : 23.976 fps
Color space                              : YUV
Chroma subsampling                       : 4:2:0
Bit depth                                : 8 bits
Scan type                                : Progressive
Bits/(Pixel*Frame)                       : 0.125
Stream size                              : 1.93 GiB (70%)
Title                                    : www.club-hd.com
Writing library                          : x264 core 129 r2245 bc13772
Language                                 : English
Default                                  : Yes
Forced                                   : No

Audio #1
ID                                       : 2
Format                                   : AC-3
Format/Info                              : Audio Coding 3
Mode extension                           : CM (complete main)
Format settings, Endianness              : Big
Codec ID                                 : A_AC3
Duration                                 : 1h 42mn
Bit rate mode                            : Constant
Bit rate                                 : 640 Kbps
Channel(s)                               : 6 channels
Channel positions                        : Front: L C R, Side: L R, LFE
Sampling rate                            : 48.0 KHz
Bit depth                                : 16 bits
Compression mode                         : Lossy
Stream size                              : 470 MiB (17%)
Title                                    : www.club-hd.com  >>  Latino AC3 5.1
Language                                 : Spanish
Default                                  : Yes
Forced                                   : No

Audio #2
ID                                       : 3
Format                                   : AC-3
Format/Info                              : Audio Coding 3
Mode extension                           : CM (complete main)
Format settings, Endianness              : Big
Codec ID                                 : A_AC3
Duration                                 : 1h 42mn
Bit rate mode                            : Constant
Bit rate                                 : 448 Kbps
Channel(s)                               : 6 channels
Channel positions                        : Front: L C R, Side: L R, LFE
Sampling rate                            : 48.0 KHz
Bit depth                                : 16 bits
Compression mode                         : Lossy
Stream size                              : 329 MiB (12%)
Title                                    : www.club-hd.com  >>  Inglés AC3 5.1
Language                                 : English
Default                                  : No
Forced                                   : No

Text #1
ID                                       : 4
Format                                   : UTF-8
Codec ID                                 : S_TEXT/UTF8
Codec ID/Info                            : UTF-8 Plain Text
Language                                 : Spanish
Default                                  : No
Forced                                   : No

Text #2
ID                                       : 5
Format                                   : UTF-8
Codec ID                                 : S_TEXT/UTF8
Codec ID/Info                            : UTF-8 Plain Text
Language                                 : English
Default                                  : No
Forced                                   : No

Menu
00:00:00.000                             : en:Chapter 1
00:05:04.387                             : en:Chapter 2
00:10:24.624                             : en:Chapter 3
00:17:06.984                             : en:Chapter 4
00:21:38.005                             : en:Chapter 5
00:28:31.501                             : en:Chapter 6
00:33:09.070                             : en:Chapter 7
00:39:55.351                             : en:Chapter 8
00:47:17.001                             : en:Chapter 9
00:54:38.859                             : en:Chapter 10
00:58:15.951                             : en:Chapter 11
01:03:17.961                             : en:Chapter 12
01:10:13.126                             : en:Chapter 13
01:18:31.790                             : en:Chapter 14
01:23:11.612                             : en:Chapter 15
01:31:12.384                             : en:Chapter 16




Descarga.jpg




google-drive-vip.png


Tenemos TODO el material de Club-HD disponible por Mega, enlaces 100% activos y online hasta la fecha

Llévate tus cuentas Mega PRO III gratis con tu membresía VIP!
Todos los posts vivos con links de Mega.
Todo el material de Club-HD desbloqueado y sin publicidad.

Obtén más información sobre nuestras Membresías VIP




MEGA.jpg

Tenemos TODO el material de Club-HD disponible por Mega, enlaces 100% activos y online hasta la fecha

Llévate tus cuentas Mega PRO III gratis con tu membresía VIP!
Todos los posts vivos con links de Mega.
Todo el material de Club-HD desbloqueado y sin publicidad.

Obtén más información sobre nuestras Membresías VIP



UPLOADED_BANNER.png

Para ver este contenido oculto, debes dar click en el botón"Like", o cualquiera de las otras reacciones:

Me Gusta Me Gusta, Me Encanta Me Encanta, Jaja Jaja, Wow Wow, Triste Triste, Molesto Molesto

 
Última edición por un moderador:
gracias revolver, ya la habia descargado en ingles pero todavia no la habia visto, ahora a descargarla otra vez para poder verla en latino mejor, saludos
 
Bajando la versión Dual [y luego borrar la versión en inglés :llrnd: ]

Pero no importa! hajjakjajaa GRACIAAAAAS!
:dplgar:
 
bye Gracias hermano!! Se ve interesante la peli!! Saludos guit4r_2 Pl4yb0y
 
Entonces no habra solo audio latino por separado? :)
 
Desc_g_

Tenia el presentimiento de que la subirian en dual audio y por eso no la descargue =P... Bueno mas que presentimiento era conocimiento, despues de este tiempo siguiendolos era de esperarse, grandes los dos!!!

Agradecer ya se queda cortisimo pero aun así gracias!!! :aplausos:

Saludos :D
 
Volver