• Este aviso va dirigido a todos los nuevos miembros recien llegados a Club-HD. Les recordamos que la direccion URL de este sitio web es , asi que deben acceder únicamente por esta URL. Sean todos bienvenidos al Club!

The Photograph (2020) 1080p BDRip Dual Latino-Inglés [Subt. Esp] (Romance. Drama)

Dante Inferno

🔥Dante Inferno🔥
Miembro del Staff
Moderador
Uploader
Registrado
24 May 2016
Mensajes
547
Puntos de reacción
10,348
Puntos
93
Ubicación
Argentina
Sitio web
club-hd.com



SINOPSIS

Cuando la famosa fotógrafa Christina Eames muere inesperadamente, su hija Mae Morton (Issa Rae) se queda confundida, enfadada y llena de preguntas. Cuando encuentra una fotografía escondida en una caja de seguridad, Mae comienza a investigar la vida de joven de su madre, comenzando al mismo tiempo un apasionado e inesperado romance con un periodista, Michael Block (LaKeith Stanfield). (FILMAFFINITY)

MÁS INFORMACIÓN




TRAILER



CAPTURAS






MEDIAINFO

Código:
General
Complete name                            : The Photograph (2020) 1080p BDRip Dual Latino-Inglés [Subt. Esp].mkv
Format                                   : Matroska
Format version                           : Version 4
File size                                : 12.4 GiB
Duration                                 : 1 h 46 min
Overall bit rate mode                    : Variable
Overall bit rate                         : 16.6 Mb/s
Movie name                               : The Photograph (2020) 1080p BDRip Dual Latino-Inglés [Subt. Esp] [www.club-hd.com]
Encoded date                             : UTC 2020-05-12 00:18:53
Writing application                      : mkvmerge v27.0.0 ('Metropolis') 64-bit
Writing library                          : libebml v1.3.6 + libmatroska v1.4.9

Video
ID                                       : 1
Format                                   : AVC
Format/Info                              : Advanced Video Codec
Format profile                           : High@L4.1
Format settings                          : CABAC / 5 Ref Frames
Format settings, CABAC                   : Yes
Format settings, Reference frames        : 5 frames
Codec ID                                 : V_MPEG4/ISO/AVC
Duration                                 : 1 h 46 min
Bit rate                                 : 11.0 Mb/s
Width                                    : 1 920 pixels
Height                                   : 804 pixels
Display aspect ratio                     : 2.40:1
Frame rate mode                          : Constant
Frame rate                               : 23.976 (24000/1001) FPS
Color space                              : YUV
Chroma subsampling                       : 4:2:0
Bit depth                                : 8 bits
Scan type                                : Progressive
Bits/(Pixel*Frame)                       : 0.297
Stream size                              : 8.18 GiB (66%)
Title                                    : The Photograph (2020) 1080p BDRip Dual Latino-Inglés [Subt. Esp]
Writing library                          : x264 core 160 r3000 33f9e14
Language                                 : English
Default                                  : Yes
Forced                                   : No
Color range                              : Limited
Matrix coefficients                      : BT.709

Audio #1
ID                                       : 2
Format                                   : AC-3
Format/Info                              : Audio Coding 3
Commercial name                          : Dolby Digital
Codec ID                                 : A_AC3
Duration                                 : 1 h 46 min
Bit rate mode                            : Constant
Bit rate                                 : 640 kb/s
Channel(s)                               : 6 channels
Channel layout                           : L R C LFE Ls Rs
Sampling rate                            : 48.0 kHz
Frame rate                               : 31.250 FPS (1536 SPF)
Compression mode                         : Lossy
Stream size                              : 487 MiB (4%)
Title                                    : Español Latino (Blu-ray)
Language                                 : Spanish
Service kind                             : Complete Main
Default                                  : Yes
Forced                                   : No

Audio #2
ID                                       : 3
Format                                   : DTS
Format/Info                              : Digital Theater Systems
Codec ID                                 : A_DTS
Duration                                 : 1 h 46 min
Bit rate mode                            : Constant
Bit rate                                 : 768 kb/s
Channel(s)                               : 6 channels
Channel layout                           : C L R Ls Rs LFE
Sampling rate                            : 48.0 kHz
Frame rate                               : 93.750 FPS (512 SPF)
Bit depth                                : 24 bits
Compression mode                         : Lossy
Stream size                              : 584 MiB (5%)
Title                                    : Español Latino (Blu-ray)
Language                                 : Spanish
Default                                  : No
Forced                                   : No

Audio #3
ID                                       : 4
Format                                   : DTS XLL
Format/Info                              : Digital Theater Systems
Commercial name                          : DTS-HD Master Audio
Codec ID                                 : A_DTS
Duration                                 : 1 h 46 min
Bit rate mode                            : Variable
Bit rate                                 : 4 231 kb/s
Channel(s)                               : 8 channels
Channel layout                           : C L R LFE Lb Rb Lss Rss
Sampling rate                            : 48.0 kHz
Frame rate                               : 93.750 FPS (512 SPF)
Bit depth                                : 24 bits
Compression mode                         : Lossless
Stream size                              : 3.14 GiB (25%)
Title                                    : Inglés
Language                                 : English
Default                                  : No
Forced                                   : No

Text
ID                                       : 5
Format                                   : UTF-8
Codec ID                                 : S_TEXT/UTF8
Codec ID/Info                            : UTF-8 Plain Text
Duration                                 : 1 h 39 min
Bit rate                                 : 44 b/s
Count of elements                        : 1150
Stream size                              : 32.6 KiB (0%)
Title                                    : Subtítulos Español
Language                                 : Spanish
Default                                  : No
Forced                                   : No

Menu
00:00:00.000                             : en:Chapter 01
00:05:43.051                             : en:Chapter 02
00:09:29.652                             : en:Chapter 03
00:15:07.115                             : en:Chapter 04
00:20:27.393                             : en:Chapter 05
00:27:39.867                             : en:Chapter 06
00:34:09.339                             : en:Chapter 07
00:38:19.380                             : en:Chapter 08
00:44:47.435                             : en:Chapter 09
00:50:13.010                             : en:Chapter 10
00:54:30.642                             : en:Chapter 11
00:57:48.507                             : en:Chapter 12
01:02:09.893                             : en:Chapter 13
01:08:18.636                             : en:Chapter 14
01:15:49.628                             : en:Chapter 15
01:21:25.672                             : en:Chapter 16
01:25:29.541                             : en:Chapter 17
01:31:40.286                             : en:Chapter 18
01:36:41.045                             : en:Chapter 19
01:40:27.021                             : en:Chapter 20

Un agradecimiento muy especial a nuestro amigo jona28 por brindarnos este audio Latino de excelente calidad.

Descarga sólo el audio Latino de este aporte, aquí.



CONTRASEÑA



DESCARGAR

Todos los links son Intercambiables




Enlaces de Mega y Google Drive solo disponibles para Miembros VIP

Compra tu Membresía VIP y apoya a Club-HD!

ATENCIÓN! Tenemos TODO el material de Club-HD disponible por Mega y Google Drive, enlaces 100% activos y online hasta la fecha

Llévate tus cuentas Mega PRO II gratis con tu membresía VIP!
Todos los posts vivos con links de Mega y Google Drive.
Todo el material de Club-HD desbloqueado y sin publicidad.

Click Aquí para más información.



Enlaces de Mega y Google Drive solo disponibles para Miembros VIP

Compra tu Membresía VIP y apoya a Club-HD!

ATENCIÓN! Tenemos TODO el material de Club-HD disponible por Mega y Google Drive, enlaces 100% activos y online hasta la fecha

Llévate tus cuentas Mega PRO II gratis con tu membresía VIP!
Todos los posts vivos con links de Mega y Google Drive.
Todo el material de Club-HD desbloqueado y sin publicidad.

Click Aquí para más información.



Para ver este contenido oculto, debes dar click en una de las siguientes reacciones: Like Like, Love Love, Haha Haha, Wow Wow, Sad Sad, Angry Angry



Para ver este contenido oculto, debes dar click en una de las siguientes reacciones: Like Like, Love Love, Haha Haha, Wow Wow, Sad Sad, Angry Angry



Para ver este contenido oculto, debes dar click en una de las siguientes reacciones: Like Like, Love Love, Haha Haha, Wow Wow, Sad Sad, Angry Angry
 
Última edición:

rachi

Active member
Registrado
21 Jul 2018
Mensajes
615
Puntos de reacción
57
Puntos
28
Gracias por el aporte
 

cripp

Well-known member
Registrado
27 Ago 2012
Mensajes
7,925
Puntos de reacción
449
Puntos
113
Gracias por compartir
 

galiel38

Active member
Registrado
28 Sep 2012
Mensajes
655
Puntos de reacción
73
Puntos
28
Edad
32
Muchas gracias por la película.
 

opv_2011

Active member
Registrado
3 Feb 2016
Mensajes
721
Puntos de reacción
41
Puntos
28
Edad
46



SINOPSIS

Cuando la famosa fotógrafa Christina Eames muere inesperadamente, su hija Mae Morton (Issa Rae) se queda confundida, enfadada y llena de preguntas. Cuando encuentra una fotografía escondida en una caja de seguridad, Mae comienza a investigar la vida de joven de su madre, comenzando al mismo tiempo un apasionado e inesperado romance con un periodista, Michael Block (LaKeith Stanfield). (FILMAFFINITY)

MÁS INFORMACIÓN




TRAILER



CAPTURAS






MEDIAINFO

Código:
General
Complete name                            : The Photograph (2020) 1080p BDRip Dual Latino-Inglés [Subt. Esp].mkv
Format                                   : Matroska
Format version                           : Version 4
File size                                : 12.4 GiB
Duration                                 : 1 h 46 min
Overall bit rate mode                    : Variable
Overall bit rate                         : 16.6 Mb/s
Movie name                               : The Photograph (2020) 1080p BDRip Dual Latino-Inglés [Subt. Esp] [www.club-hd.com]
Encoded date                             : UTC 2020-05-12 00:18:53
Writing application                      : mkvmerge v27.0.0 ('Metropolis') 64-bit
Writing library                          : libebml v1.3.6 + libmatroska v1.4.9

Video
ID                                       : 1
Format                                   : AVC
Format/Info                              : Advanced Video Codec
Format profile                           : High@L4.1
Format settings                          : CABAC / 5 Ref Frames
Format settings, CABAC                   : Yes
Format settings, Reference frames        : 5 frames
Codec ID                                 : V_MPEG4/ISO/AVC
Duration                                 : 1 h 46 min
Bit rate                                 : 11.0 Mb/s
Width                                    : 1 920 pixels
Height                                   : 804 pixels
Display aspect ratio                     : 2.40:1
Frame rate mode                          : Constant
Frame rate                               : 23.976 (24000/1001) FPS
Color space                              : YUV
Chroma subsampling                       : 4:2:0
Bit depth                                : 8 bits
Scan type                                : Progressive
Bits/(Pixel*Frame)                       : 0.297
Stream size                              : 8.18 GiB (66%)
Title                                    : The Photograph (2020) 1080p BDRip Dual Latino-Inglés [Subt. Esp]
Writing library                          : x264 core 160 r3000 33f9e14
Language                                 : English
Default                                  : Yes
Forced                                   : No
Color range                              : Limited
Matrix coefficients                      : BT.709

Audio #1
ID                                       : 2
Format                                   : AC-3
Format/Info                              : Audio Coding 3
Commercial name                          : Dolby Digital
Codec ID                                 : A_AC3
Duration                                 : 1 h 46 min
Bit rate mode                            : Constant
Bit rate                                 : 640 kb/s
Channel(s)                               : 6 channels
Channel layout                           : L R C LFE Ls Rs
Sampling rate                            : 48.0 kHz
Frame rate                               : 31.250 FPS (1536 SPF)
Compression mode                         : Lossy
Stream size                              : 487 MiB (4%)
Title                                    : Español Latino (Blu-ray)
Language                                 : Spanish
Service kind                             : Complete Main
Default                                  : Yes
Forced                                   : No

Audio #2
ID                                       : 3
Format                                   : DTS
Format/Info                              : Digital Theater Systems
Codec ID                                 : A_DTS
Duration                                 : 1 h 46 min
Bit rate mode                            : Constant
Bit rate                                 : 768 kb/s
Channel(s)                               : 6 channels
Channel layout                           : C L R Ls Rs LFE
Sampling rate                            : 48.0 kHz
Frame rate                               : 93.750 FPS (512 SPF)
Bit depth                                : 24 bits
Compression mode                         : Lossy
Stream size                              : 584 MiB (5%)
Title                                    : Español Latino (Blu-ray)
Language                                 : Spanish
Default                                  : No
Forced                                   : No

Audio #3
ID                                       : 4
Format                                   : DTS XLL
Format/Info                              : Digital Theater Systems
Commercial name                          : DTS-HD Master Audio
Codec ID                                 : A_DTS
Duration                                 : 1 h 46 min
Bit rate mode                            : Variable
Bit rate                                 : 4 231 kb/s
Channel(s)                               : 8 channels
Channel layout                           : C L R LFE Lb Rb Lss Rss
Sampling rate                            : 48.0 kHz
Frame rate                               : 93.750 FPS (512 SPF)
Bit depth                                : 24 bits
Compression mode                         : Lossless
Stream size                              : 3.14 GiB (25%)
Title                                    : Inglés
Language                                 : English
Default                                  : No
Forced                                   : No

Text
ID                                       : 5
Format                                   : UTF-8
Codec ID                                 : S_TEXT/UTF8
Codec ID/Info                            : UTF-8 Plain Text
Duration                                 : 1 h 39 min
Bit rate                                 : 44 b/s
Count of elements                        : 1150
Stream size                              : 32.6 KiB (0%)
Title                                    : Subtítulos Español
Language                                 : Spanish
Default                                  : No
Forced                                   : No

Menu
00:00:00.000                             : en:Chapter 01
00:05:43.051                             : en:Chapter 02
00:09:29.652                             : en:Chapter 03
00:15:07.115                             : en:Chapter 04
00:20:27.393                             : en:Chapter 05
00:27:39.867                             : en:Chapter 06
00:34:09.339                             : en:Chapter 07
00:38:19.380                             : en:Chapter 08
00:44:47.435                             : en:Chapter 09
00:50:13.010                             : en:Chapter 10
00:54:30.642                             : en:Chapter 11
00:57:48.507                             : en:Chapter 12
01:02:09.893                             : en:Chapter 13
01:08:18.636                             : en:Chapter 14
01:15:49.628                             : en:Chapter 15
01:21:25.672                             : en:Chapter 16
01:25:29.541                             : en:Chapter 17
01:31:40.286                             : en:Chapter 18
01:36:41.045                             : en:Chapter 19
01:40:27.021                             : en:Chapter 20

Un agradecimiento muy especial a nuestro amigo jona28 por brindarnos este audio Latino de excelente calidad.

Descarga sólo el audio Latino de este aporte, aquí.



CONTRASEÑA




DESCARGAR

Todos los links son Intercambiables




[Hidden content]




[Hidden content]




[Hidden content]




[Hidden content]




[Hidden content]
Gracias por la película!
 

Usuarios Que Están Viendo Este Tema (Total: 1, Miembros: 0, Invitados: 1)

Arriba