The Place Beyond the Pines (2012) m-720p BDRip Dual Latino-Inglés [Subt. Esp] (Drama)

Maestro Revolver

Administrador
Registro
9 Ago 2012
Mensajes
3.157
Reacciones (ptje)
54.925


The-place-beyond-the-pines.jpg




FichaTecnica.jpg


TÍTULO ORIGINAL: The Place Beyond the Pines
AÑO: 2012
DURACIÓN: 140 min.
PAÍS: USA
DIRECTOR: Derek Cianfrance
GUIÓN: Derek Cianfrance, Ben Coccio, Darius Marder
REPARTO: Ryan Gosling, Bradley Cooper, Eva Mendes, Dane DeHaan, Ray Liotta, Rose Byrne, Ben Mendelsohn, Bruce Greenwood, Mahershala Ali, Emory Cohen, Olga Merediz, Craig Van Hook, Gabe Fazio, Robert Clohessy, Luca Pierucci, Anthony Pizza, Kayla Smalls
PRODUCTORA: Focus Features / Hunting Lane Films / Pines Productions / Sidney Kimmel Entertainment
GÉNERO: Drama | Crimen. Familia. Cine independiente USA
imdb-logo.png
: http://www.imdb.com/title/tt1817273/




Sinopsis.jpg


Luke (Gosling), un motorista que trabaja como especialista, trata de ponerse en contacto con su antiguo amor, Romina (Eva Mendes), y descubre que recientemente ella ha tenido un hijo de él, Jason. Decide entonces dejar su trabajo en la carretera y dedicarse a su familia trabajando como mecánico.




Trailer.jpg






Capturas.jpg


1.jpg


2.jpg


3.jpg


4.jpg


5.jpg


6.jpg


La pelicula NO tiene ninguna marca... solo colocamos el nombre de esta web en las capturas




MediaInfo.jpg


Código:
General
Format                                   : Matroska
Format version                           : Version 2
File size                                : 3.73 GiB
Duration                                 : 2h 20mn
Overall bit rate                         : 3 802 Kbps
Movie name                               : www.club-hd.com
Encoded date                             : UTC 2013-08-19 15:12:31
Writing application                      : mkvmerge v5.7.0 ('The Whirlwind') built on Jul  8 2012 20:08:51
Writing library                          : libebml v1.2.3 + libmatroska v1.3.0

Video
ID                                       : 1
Format                                   : AVC
Format/Info                              : Advanced Video Codec
Format profile                           : [email protected]
Format settings, CABAC                   : Yes
Format settings, ReFrames                : 9 frames
Codec ID                                 : V_MPEG4/ISO/AVC
Duration                                 : 2h 20mn
Bit rate                                 : 2 718 Kbps
Width                                    : 1 280 pixels
Height                                   : 536 pixels
Display aspect ratio                     : 2.40:1
Frame rate mode                          : Constant
Frame rate                               : 24.000 fps
Color space                              : YUV
Chroma subsampling                       : 4:2:0
Bit depth                                : 8 bits
Scan type                                : Progressive
Bits/(Pixel*Frame)                       : 0.165
Stream size                              : 2.59 GiB (69%)
Title                                    : www.club-hd.com
Writing library                          : x264 core 130 r2273 b3065e6
Language                                 : English
Default                                  : Yes
Forced                                   : No

Audio #1
ID                                       : 2
Format                                   : AC-3
Format/Info                              : Audio Coding 3
Mode extension                           : CM (complete main)
Format settings, Endianness              : Big
Codec ID                                 : A_AC3
Duration                                 : 2h 20mn
Bit rate mode                            : Constant
Bit rate                                 : 640 Kbps
Channel(s)                               : 6 channels
Channel positions                        : Front: L C R, Side: L R, LFE
Sampling rate                            : 48.0 KHz
Bit depth                                : 16 bits
Compression mode                         : Lossy
Stream size                              : 642 MiB (17%)
Title                                    : www.club-hd.com > Latino
Language                                 : Spanish
Default                                  : Yes
Forced                                   : No

Audio #2
ID                                       : 3
Format                                   : AC-3
Format/Info                              : Audio Coding 3
Mode extension                           : CM (complete main)
Format settings, Endianness              : Big
Codec ID                                 : A_AC3
Duration                                 : 2h 20mn
Bit rate mode                            : Constant
Bit rate                                 : 448 Kbps
Channel(s)                               : 6 channels
Channel positions                        : Front: L C R, Side: L R, LFE
Sampling rate                            : 48.0 KHz
Bit depth                                : 16 bits
Compression mode                         : Lossy
Stream size                              : 450 MiB (12%)
Title                                    : www.club-hd.com > Inglés
Language                                 : English
Default                                  : No
Forced                                   : No

Text
ID                                       : 4
Format                                   : UTF-8
Codec ID                                 : S_TEXT/UTF8
Codec ID/Info                            : UTF-8 Plain Text
Language                                 : Spanish
Default                                  : No
Forced                                   : No

Menu
00:00:00.000                             : en:Chapter 1
00:11:50.375                             : en:Chapter 2
00:21:43.292                             : en:Chapter 3
00:33:08.708                             : en:Chapter 4
00:40:35.917                             : en:Chapter 5
00:52:02.667                             : en:Chapter 6
01:03:16.208                             : en:Chapter 7
01:12:53.625                             : en:Chapter 8
01:22:57.500                             : en:Chapter 9
01:34:39.500                             : en:Chapter 10
01:49:16.000                             : en:Chapter 11
02:06:21.208                             : en:Chapter 12




Descarga.jpg



MEGA.jpg

Tenemos TODO el material de Club-HD disponible por Mega, enlaces 100% activos y online hasta la fecha

Llévate tus cuentas Mega PRO III gratis con tu membresía VIP!
Todos los posts vivos con links de Mega.
Todo el material de Club-HD desbloqueado y sin publicidad.

Obtén más información sobre nuestras Membresías VIP


1FICHIER-BANNER.png

Tenemos TODO el material de Club-HD disponible por Mega, enlaces 100% activos y online hasta la fecha

Llévate tus cuentas Mega PRO III gratis con tu membresía VIP!
Todos los posts vivos con links de Mega.
Todo el material de Club-HD desbloqueado y sin publicidad.

Obtén más información sobre nuestras Membresías VIP


UPLOADED_BANNER.png

Para ver este contenido oculto, debes dar click en el botón"Like", o cualquiera de las otras reacciones:

Me Gusta Me Gusta, Me Encanta Me Encanta, Jaja Jaja, Wow Wow, Triste Triste, Molesto Molesto

OPENLOAD.png


Para ver este contenido oculto, debes dar click en el botón"Like", o cualquiera de las otras reacciones:

Me Gusta Me Gusta, Me Encanta Me Encanta, Jaja Jaja, Wow Wow, Triste Triste, Molesto Molesto
 
Última edición por un moderador:
Volver