The Police - Certifiable (2008) 720p BDRip [AC3 5.1] [Subt. Esp] (Concierto)

Maestro Revolver

Well-known member
Miembro del Staff
Administrador
Registro
9 Ago 2012
Mensajes
3.567








The Police: Certifiable se grabó en el estadio de River Plate en Buenos Aires en 2007 durante la gira de reunión del grupo.Es un lanzamiento que incluye cortes como "Message In A Bottle", "Every Breath You Take" ó "Walking On The Moon". El vídeo del concierto está producido y dirigido por Ann Kim y Jim Gable (Rolling Stones, Sting, Keith Urban, Chris Botti).



Track List:

1 - Message in a Bottle
2 - Synchronicity II
3 - Walking on the Moon
4 - Voices Inside My Head / When the World Is Running Down
5 - Don't Stand So Close To Me
6 - Driven to Tears
7 - Hole in my Life
8 - Truth Hits Everybody
9 - Every Little Thing She Does is Magic
10 - Wrapped Around Your Finger
11 - De Do Do Do De Da Da Da
12 - Invisible Sun
13 - Walking in your Footsteps
14 - Can't Stand Losing You / Reggatta De Blanc
15 - Roxanne
16 - King of Pain
17 - So Lonely
18 - Every Breath You Take
19 - Next to You





























Código:
General
Format                                   : Matroska
Format version                           : Version 2
File size                                : 4.37 GiB
Duration                                 : 1h 48mn
Overall bit rate                         : 5 763 Kbps
Movie name                               : www.club-hd.com
Encoded date                             : UTC 2013-07-20 17:39:47
Writing application                      : mkvmerge v5.7.0 ('The Whirlwind') built on Jul  8 2012 20:08:51
Writing library                          : libebml v1.2.3 + libmatroska v1.3.0

Video
ID                                       : 1
Format                                   : AVC
Format/Info                              : Advanced Video Codec
Format profile                           : High@L4.1
Format settings, CABAC                   : Yes
Format settings, ReFrames                : 5 frames
Codec ID                                 : V_MPEG4/ISO/AVC
Duration                                 : 1h 48mn
Bit rate                                 : 5 124 Kbps
Width                                    : 1 280 pixels
Height                                   : 720 pixels
Display aspect ratio                     : 16:9
Frame rate mode                          : Constant
Frame rate                               : 29.970 fps
Color space                              : YUV
Chroma subsampling                       : 4:2:0
Bit depth                                : 8 bits
Scan type                                : Progressive
Bits/(Pixel*Frame)                       : 0.186
Stream size                              : 3.80 GiB (87%)
Title                                    : www.club-hd.com
Writing library                          : x264 core 100 r1659 57b2e56
Language                                 : English
Default                                  : Yes
Forced                                   : No

Audio
ID                                       : 2
Format                                   : AC-3
Format/Info                              : Audio Coding 3
Mode extension                           : CM (complete main)
Format settings, Endianness              : Big
Codec ID                                 : A_AC3
Duration                                 : 1h 48mn
Bit rate mode                            : Constant
Bit rate                                 : 640 Kbps
Channel(s)                               : 6 channels
Channel positions                        : Front: L C R, Side: L R, LFE
Sampling rate                            : 48.0 KHz
Bit depth                                : 16 bits
Compression mode                         : Lossy
Stream size                              : 497 MiB (11%)
Title                                    : www.club-hd.com
Language                                 : English
Default                                  : Yes
Forced                                   : No

Text
ID                                       : 3
Format                                   : UTF-8
Codec ID                                 : S_TEXT/UTF8
Codec ID/Info                            : UTF-8 Plain Text
Title                                    : www.club-hd.com
Language                                 : Spanish
Default                                  : Yes
Forced                                   : No








Enlaces de Mega y Google Drive solo disponibles para Miembros VIP

Compra tu Membresía VIP y apoya a Club-HD!

ATENCIÓN! Tenemos TODO el material de Club-HD disponible por Mega y Google Drive, enlaces 100% activos y online hasta la fecha

Llévate tus cuentas Mega PRO III gratis con tu membresía VIP!
Todos los posts vivos con links de Mega y Google Drive.
Todo el material de Club-HD desbloqueado y sin publicidad.

Click Aquí para más información.


Para ver este contenido oculto, debes dar click en una de las siguientes reacciones : Like Like, Love Love, Haha Haha, Wow Wow, Sad Sad, Angry Angry

 
Última edición por un moderador:

Usuarios Que Están Viendo Este Tema (Total: 1, Miembros: 0, Invitados: 1)

Quién Leyó Este Tema (Total Miembros: 1)

Arriba