The Possession (2012) m-720p Dual Latino-Inglés [Subt. Esp-Ing] (Terror)

Maestro Revolver

Well-known member
Miembro del Staff
Administrador
Registro
9 Ago 2012
Mensajes
3.569
Reacciones
59.341
Puntos
113

Reputation:


Aporte Recuperado gracias a nuestro amigo HemoarAgros







TÍTULO ORIGINAL: The Possession
AÑO: 2012
DURACIÓN: 92 min.
PAÍS: USA
DIRECTOR: Ole Bornedal
GUIÓN: E.L. Katz, Kevin Mannis, Juliet Snowden, Stephen Susco, Stiles White
REPARTO: Jeffrey Dean Morgan, Kyra Sedgwick, Grant Show, Madison Davenport, Natasha Calis, Jay Brazeuau, Matisyahu
PRODUCTORA: Lionsgate / Ghost House Pictures / North Box Productions
GÉNERO: Terror | Sobrenatural. Posesiones/Exorcismos
: http://www.imdb.com/title/tt0431021/






Clyde y Stephanie Brenek no ven motivo de alarma en la extraña obsesión de su hija, Em, por una caja antigua de madera que ha comprado de segunda mano. Pero cuando su comportamiento se vuelve agresivo, la pareja empieza a temerse que haya una presencia maléfica entre ellos.
























La pelicula NO tiene ninguna marca... solo colocamos el nombre de esta web en las capturas






Código:
General
Format                                   : Matroska
Format version                           : Version 2
File size                                : 2.41 GiB
Duration                                 : 1h 32mn
Overall bit rate                         : 3 748 Kbps
Movie name                               : www.club-hd.com
Encoded date                             : UTC 2013-01-05 16:30:59
Writing application                      : mkvmerge v5.7.0 ('The Whirlwind') built on Jul  8 2012 20:08:51
Writing library                          : libebml v1.2.3 + libmatroska v1.3.0

Video
ID                                       : 1
Format                                   : AVC
Format/Info                              : Advanced Video Codec
Format profile                           : High@L4.1
Format settings, CABAC                   : Yes
Format settings, ReFrames                : 9 frames
Codec ID                                 : V_MPEG4/ISO/AVC
Duration                                 : 1h 32mn
Bit rate                                 : 2 660 Kbps
Width                                    : 1 280 pixels
Height                                   : 534 pixels
Display aspect ratio                     : 2.40:1
Frame rate mode                          : Constant
Frame rate                               : 23.976 fps
Color space                              : YUV
Chroma subsampling                       : 4:2:0
Bit depth                                : 8 bits
Scan type                                : Progressive
Bits/(Pixel*Frame)                       : 0.162
Stream size                              : 1.67 GiB (69%)
Title                                    : www.club-hd.com
Writing library                          : x264 core 129 r2230 1cffe9f
Language                                 : English
Default                                  : Yes
Forced                                   : No

Audio #1
ID                                       : 2
Format                                   : AC-3
Format/Info                              : Audio Coding 3
Mode extension                           : CM (complete main)
Format settings, Endianness              : Big
Codec ID                                 : A_AC3
Duration                                 : 1h 32mn
Bit rate mode                            : Constant
Bit rate                                 : 640 Kbps
Channel(s)                               : 6 channels
Channel positions                        : Front: L C R, Side: L R, LFE
Sampling rate                            : 48.0 KHz
Bit depth                                : 16 bits
Compression mode                         : Lossy
Stream size                              : 422 MiB (17%)
Title                                    : www.club-hd.com  >>  Latino
Language                                 : Spanish
Default                                  : Yes
Forced                                   : No

Audio #2
ID                                       : 3
Format                                   : AC-3
Format/Info                              : Audio Coding 3
Mode extension                           : CM (complete main)
Format settings, Endianness              : Big
Codec ID                                 : A_AC3
Duration                                 : 1h 32mn
Bit rate mode                            : Constant
Bit rate                                 : 448 Kbps
Channel(s)                               : 6 channels
Channel positions                        : Front: L C R, Side: L R, LFE
Sampling rate                            : 48.0 KHz
Bit depth                                : 16 bits
Compression mode                         : Lossy
Stream size                              : 296 MiB (12%)
Title                                    : www.club-hd.com  >>  Inglés
Language                                 : English
Default                                  : No
Forced                                   : No

Text #1
ID                                       : 4
Format                                   : UTF-8
Codec ID                                 : S_TEXT/UTF8
Codec ID/Info                            : UTF-8 Plain Text
Language                                 : Spanish
Default                                  : No
Forced                                   : No

Text #2
ID                                       : 5
Format                                   : UTF-8
Codec ID                                 : S_TEXT/UTF8
Codec ID/Info                            : UTF-8 Plain Text
Language                                 : English
Default                                  : No
Forced                                   : No

Menu
00:00:00.000                             : en:Chapter 1
00:03:36.508                             : en:Chapter 2
00:08:00.313                             : en:Chapter 3
00:11:01.744                             : en:Chapter 4
00:13:24.721                             : en:Chapter 5
00:16:57.016                             : en:Chapter 6
00:20:51.250                             : en:Chapter 7
00:25:05.129                             : en:Chapter 8
00:30:09.975                             : en:Chapter 9
00:35:03.560                             : en:Chapter 10
00:39:06.177                             : en:Chapter 11
00:43:04.540                             : en:Chapter 12
00:46:16.816                             : en:Chapter 13
00:50:02.458                             : en:Chapter 14
00:52:48.707                             : en:Chapter 15
00:55:26.573                             : en:Chapter 16
00:57:09.926                             : en:Chapter 17
01:01:59.341                             : en:Chapter 18
01:05:47.569                             : en:Chapter 19
01:08:22.098                             : en:Chapter 20
01:12:05.404                             : en:Chapter 21
01:17:08.749                             : en:Chapter 22
01:24:01.912                             : en:Chapter 23
01:26:42.239                             : en:Chapter 24







Código:
www.club-hd.com[/CENTER]










Enlaces de Mega y Fireload solo disponibles para Miembros VIP

Compra tu Membresía VIP y apoya a Club-HD!

ATENCIÓN! Tenemos TODO el material de Club-HD disponible por Mega y Fireload, enlaces 100% activos y online hasta la fecha

Llévate tus cuentas Mega PRO II gratis con tu membresía VIP!
Todos los posts vivos con links de Mega y Fireload.
Todo el material de Club-HD desbloqueado y sin publicidad.

Click Aquí para más información.




Enlaces de Mega y Fireload solo disponibles para Miembros VIP

Compra tu Membresía VIP y apoya a Club-HD!

ATENCIÓN! Tenemos TODO el material de Club-HD disponible por Mega y Fireload, enlaces 100% activos y online hasta la fecha

Llévate tus cuentas Mega PRO II gratis con tu membresía VIP!
Todos los posts vivos con links de Mega y Fireload.
Todo el material de Club-HD desbloqueado y sin publicidad.

Click Aquí para más información.



Para ver este contenido oculto, debes dar click en una de las siguientes reacciones : Like Like, Love Love, Haha Haha, Wow Wow, Sad Sad, Angry Angry

 
Última edición:

Pedrum

The Buckminster
Registro
28 Ago 2012
Mensajes
1.092
Reacciones
1.546
Puntos
113
Ubicación
Bahia Blanca

Reputation:

se ve buenísima Jefe! muchas gracias por el aporte!

Saludos! victory
 

Mate78

Ladron de mi cerebro
Miembro del Staff
Súper Moderador
Registro
27 Ago 2012
Mensajes
1.235
Reacciones
918
Puntos
113

Reputation:

No te imaginas como la esperaba !!! gracias R21:LXR:
 

kenny407

New member
Registro
27 Ago 2012
Mensajes
490
Reacciones
29
Puntos
0
Edad
27

Reputation:

Para que mi novia me abrace... Eso es! jajajaja :slbd:

Descargando :)
 

Usuarios Que Están Viendo Este Tema (Total: 1, Miembros: 0, Invitados: 1)

Arriba