The Power of Few (2013) 720p BDRip Dual Latino-Inglés [Subt. Esp] (Acción. Thriller)

Maestro Revolver

Well-known member
Miembro del Staff
Administrador
Registro
9 Ago 2012
Mensajes
3.567








TÍTULO ORIGINAL: The Power of Few
AÑO: 2013
DURACIÓN: 96 min.
PAÍS: USA
DIRECTOR: Leone Marucci
GUIÓN: Leone Marucci
REPARTO: Christopher Walken, Christian Slater, Q’orianka Kilcher, Anthony Anderson, Jesse Bradford, Moon Bloodgood, Nicky Whelan, Devon Gearhart, Juvenile Navid Negahban, Jordan Prentice, Derek Richardson
PRODUCTORA: Steelyard Pictures / iQ Films
GÉNERO: Acción. Thriller | Religión. Historias cruzadas
: http://www.imdb.com/title/tt0817545/






Espías, policías, santurrones tarados y niños armados cruzan sus caminos en un día de peligro, misterio y posible transformación. ‘The Power of Few’ nos lleva a través de las vidas de personajes poco corrientes que, de forma inconsciente, están conectados a una gran operación de contrabando durante un día en el que colisionan las conspiraciones religiosas y el crímen callejero...
























La pelicula NO tiene ninguna marca... solo colocamos el nombre de esta web en las capturas






Código:
General
Format                                   : Matroska
Format version                           : Version 2
File size                                : 3.80 GiB
Duration                                 : 1h 35mn
Overall bit rate                         : 5 674 Kbps
Movie name                               : www.club-hd.com
Encoded date                             : UTC 2013-06-21 20:40:55
Writing application                      : mkvmerge v5.7.0 ('The Whirlwind') built on Jul  8 2012 20:08:51
Writing library                          : libebml v1.2.3 + libmatroska v1.3.0

Video
ID                                       : 1
Format                                   : AVC
Format/Info                              : Advanced Video Codec
Format profile                           : High@L4.1
Format settings, CABAC                   : Yes
Format settings, ReFrames                : 9 frames
Codec ID                                 : V_MPEG4/ISO/AVC
Duration                                 : 1h 35mn
Bit rate                                 : 4 729 Kbps
Width                                    : 1 280 pixels
Height                                   : 720 pixels
Display aspect ratio                     : 16:9
Frame rate mode                          : Constant
Frame rate                               : 23.976 fps
Color space                              : YUV
Chroma subsampling                       : 4:2:0
Bit depth                                : 8 bits
Scan type                                : Progressive
Bits/(Pixel*Frame)                       : 0.214
Stream size                              : 3.17 GiB (83%)
Title                                    : www.club-hd.com
Language                                 : English
Default                                  : Yes
Forced                                   : No

Audio #1
ID                                       : 2
Format                                   : AC-3
Format/Info                              : Audio Coding 3
Mode extension                           : CM (complete main)
Format settings, Endianness              : Big
Codec ID                                 : A_AC3
Duration                                 : 1h 35mn
Bit rate mode                            : Constant
Bit rate                                 : 384 Kbps
Channel(s)                               : 6 channels
Channel positions                        : Front: L C R, Side: L R, LFE
Sampling rate                            : 48.0 KHz
Bit depth                                : 16 bits
Compression mode                         : Lossy
Delay relative to video                  : 750ms
Stream size                              : 264 MiB (7%)
Title                                    : www.club-hd.com  >>  Latino
Language                                 : Spanish
Default                                  : Yes
Forced                                   : No

Audio #2
ID                                       : 3
Format                                   : AC-3
Format/Info                              : Audio Coding 3
Mode extension                           : CM (complete main)
Format settings, Endianness              : Big
Codec ID                                 : A_AC3
Duration                                 : 1h 35mn
Bit rate mode                            : Constant
Bit rate                                 : 448 Kbps
Channel(s)                               : 6 channels
Channel positions                        : Front: L C R, Side: L R, LFE
Sampling rate                            : 48.0 KHz
Bit depth                                : 16 bits
Compression mode                         : Lossy
Stream size                              : 308 MiB (8%)
Title                                    : www.club-hd.com  >>  Inglés
Language                                 : English
Default                                  : No
Forced                                   : No

Text
ID                                       : 4
Format                                   : UTF-8
Codec ID                                 : S_TEXT/UTF8
Codec ID/Info                            : UTF-8 Plain Text
Language                                 : Spanish
Default                                  : No
Forced                                   : No








Enlaces de Mega y Google Drive solo disponibles para Miembros VIP

Compra tu Membresía VIP y apoya a Club-HD!

ATENCIÓN! Tenemos TODO el material de Club-HD disponible por Mega y Google Drive, enlaces 100% activos y online hasta la fecha

Llévate tus cuentas Mega PRO III gratis con tu membresía VIP!
Todos los posts vivos con links de Mega y Google Drive.
Todo el material de Club-HD desbloqueado y sin publicidad.

Click Aquí para más información.


Para ver este contenido oculto, debes dar click en una de las siguientes reacciones : Like Like, Love Love, Haha Haha, Wow Wow, Sad Sad, Angry Angry



 
Última edición por un moderador:

Pedrum

The Buckminster
Registro
28 Ago 2012
Mensajes
1.092
Ubicación
Bahia Blanca
Re: The Power of Few (2009) 720p BDRip Dual Latino-Inglés [Subt. Esp] (Acción. Thriller)

Gracias Revo, esta si que no la vi, pero me suena el titulo, la he escuchado por ahi, asi que a bajarla!!

Saludos Lokito! victory
 

Leo-Peru

Well-known member
Registro
27 Ago 2012
Mensajes
1.487
Ubicación
Lima
Re: The Power of Few (2009) 720p BDRip Dual Latino-Inglés [Subt. Esp] (Acción. Thriller)

Desc_g_ __ Desc_g_
 

arcanhell79

New member
Registro
29 Ago 2012
Mensajes
95
Edad
43
Re: The Power of Few (2009) 720p BDRip Dual Latino-Inglés [Subt. Esp] (Acción. Thriller)

vamos a ver qiue onda
 

LUISPUAS

New member
Registro
28 Ago 2012
Mensajes
546
Re: The Power of Few (2009) 720p BDRip Dual Latino-Inglés [Subt. Esp] (Acción. Thriller)

Desc_g_
 

Mate78

Ladron de mi cerebro
Miembro del Staff
Súper Moderador
Miembro VIP
Registro
27 Ago 2012
Mensajes
1.244
Re: The Power of Few (2009) 720p BDRip Dual Latino-Inglés [Subt. Esp] (Acción. Thriller)

Bestia no paras de sorprender a todos , muchas graciasssss:dplgar:
 

Nosferatu

Well-known member
Miembro del Staff
Súper Moderador
Miembro VIP
Registro
31 Ago 2012
Mensajes
2.275
Edad
45
Ubicación
Welcome to Hell!!
Re: The Power of Few (2009) 720p BDRip Dual Latino-Inglés [Subt. Esp] (Acción. Thriller)

Muchas gracias Por este aporte, te soy sincero esta no la he visto, veremos a ver que tal.:aplausos::aplausos::aplausos:

Gracias Monstruo R22!!!:aplausos::aplausos:Tb_up3
 

kiketheone

Member
Registro
27 Ago 2012
Mensajes
548
Re: The Power of Few (2009) 720p BDRip Dual Latino-Inglés [Subt. Esp] (Acción. Thriller)

Desc_g_
 

Doctor Jason

New member
Súper Moderador
Registro
1 Sep 2012
Mensajes
2.398
Ubicación
Buenos Aires
Gracias!!!

Esta si que no la tenia registrada. Me paso una cosa cuando lo vi a Christopher Walken con esa peluca, se me apareció la imagen de "Paolo El Rockero", creo que estoy flasheando mal, no loco uuuhhh?Pnsand0

 

Usuarios Que Están Viendo Este Tema (Total: 1, Miembros: 0, Invitados: 1)

Quién Leyó Este Tema (Total Miembros: 2)

Arriba