The Purge (2013) 720p BDRip Dual Latino-Inglés [Subt. Esp] (Terror. Thriller)

Maestro Revolver

Well-known member
Miembro del Staff
Administrador
Registro
9 Ago 2012
Mensajes
3.567








TÍTULO ORIGINAL: The Purge
AÑO: 2013
DURACIÓN: 86 min.
PAÍS: USA
DIRECTOR: James DeMonaco
GUIÓN: James DeMonaco
REPARTO: Ethan Hawke, Lena Headey, Max Burkholder, Adelaide Kane, Rhys Wakefield, Edwin Hodge, Tony Oller, Tom Yi, Tyler Jaye, Alicia Vela-Bailey, John Weselcouch
PRODUCTORA: Universal Pictures / Blumhouse Productions / Platinum Dunes / Why Not Productions
GÉNERO: Terror. Thriller. Ciencia ficción | Thriller futurista. Crimen
: http://www.imdb.com/title/tt2184339/






Año 2022. En una futura sociedad distópica, el régimen político vigente, llamado Nueva Fundación de los padres de América, ha decidido como medida catárquica implantar la "purga anual", una regla por la que una noche de cada año se puede cometer cualquier crimen, incluyendo asesinatos y violaciones, sin tener que hacer frente a las consecuencias ni responder ante la justicia. Así, cuando las viciadas nuevas reglas del mundo exterior amenacen su casa, los miembros de una familia verán su vida en peligro, en el transcurso de una terrorífica noche durante la cual todos se verán puestos a prueba para ver hasta dónde son capaces de llegar para protegerse.
























La pelicula NO tiene ninguna marca... solo colocamos el nombre de esta web en las capturas






Código:
General
Format                                   : Matroska
Format version                           : Version 2
File size                                : 4.12 GiB
Duration                                 : 1h 25mn
Overall bit rate                         : 6 913 Kbps
Movie name                               : www.club-hd.com
Encoded date                             : UTC 2013-09-27 23:53:38
Writing application                      : mkvmerge v5.7.0 ('The Whirlwind') built on Jul  8 2012 20:08:51
Writing library                          : libebml v1.2.3 + libmatroska v1.3.0

Video
ID                                       : 1
Format                                   : AVC
Format/Info                              : Advanced Video Codec
Format profile                           : High@L4.1
Format settings, CABAC                   : Yes
Format settings, ReFrames                : 5 frames
Codec ID                                 : V_MPEG4/ISO/AVC
Duration                                 : 1h 25mn
Bit rate                                 : 5 822 Kbps
Width                                    : 1 280 pixels
Height                                   : 536 pixels
Display aspect ratio                     : 2.40:1
Frame rate mode                          : Constant
Frame rate                               : 23.976 fps
Color space                              : YUV
Chroma subsampling                       : 4:2:0
Bit depth                                : 8 bits
Scan type                                : Progressive
Bits/(Pixel*Frame)                       : 0.354
Stream size                              : 3.39 GiB (82%)
Title                                    : www.club-hd.com
Writing library                          : x264 core 133 r2334 a3ac64b
Language                                 : English
Default                                  : Yes
Forced                                   : No

Audio #1
ID                                       : 2
Format                                   : AC-3
Format/Info                              : Audio Coding 3
Mode extension                           : CM (complete main)
Format settings, Endianness              : Big
Codec ID                                 : A_AC3
Duration                                 : 1h 25mn
Bit rate mode                            : Constant
Bit rate                                 : 640 Kbps
Channel(s)                               : 6 channels
Channel positions                        : Front: L C R, Side: L R, LFE
Sampling rate                            : 48.0 KHz
Bit depth                                : 16 bits
Compression mode                         : Lossy
Stream size                              : 390 MiB (9%)
Title                                    : www.club-hd.com  >>  Latino
Language                                 : Spanish
Default                                  : Yes
Forced                                   : No

Audio #2
ID                                       : 3
Format                                   : AC-3
Format/Info                              : Audio Coding 3
Mode extension                           : CM (complete main)
Format settings, Endianness              : Big
Codec ID                                 : A_AC3
Duration                                 : 1h 25mn
Bit rate mode                            : Constant
Bit rate                                 : 448 Kbps
Channel(s)                               : 6 channels
Channel positions                        : Front: L C R, Side: L R, LFE
Sampling rate                            : 48.0 KHz
Bit depth                                : 16 bits
Compression mode                         : Lossy
Stream size                              : 273 MiB (6%)
Title                                    : www.club-hd.com  >>  Inglés
Language                                 : English
Default                                  : No
Forced                                   : No

Text
ID                                       : 4
Format                                   : UTF-8
Codec ID                                 : S_TEXT/UTF8
Codec ID/Info                            : UTF-8 Plain Text
Language                                 : Spanish
Default                                  : No
Forced                                   : No

Menu
00:00:00.000                             : en:00:00:00.000
00:04:30.562                             : en:00:04:30.562
00:07:24.402                             : en:00:07:24.402
00:13:48.619                             : en:00:13:48.619
00:18:24.103                             : en:00:18:24.103
00:23:11.473                             : en:00:23:11.473
00:28:13.859                             : en:00:28:13.859
00:31:33.266                             : en:00:31:33.266
00:35:42.182                             : en:00:35:42.182
00:39:28.741                             : en:00:39:28.741
00:44:37.508                             : en:00:44:37.508
00:47:53.120                             : en:00:47:53.120
00:50:33.447                             : en:00:50:33.447
00:56:02.234                             : en:00:56:02.234
01:00:20.283                             : en:01:00:20.283
01:03:35.729                             : en:01:03:35.729
01:07:09.776                             : en:01:07:09.776
01:11:09.891                             : en:01:11:09.891
01:16:01.807                             : en:01:16:01.807
01:19:27.096                             : en:01:19:27.096








Enlaces de Mega y Google Drive solo disponibles para Miembros VIP

Compra tu Membresía VIP y apoya a Club-HD!

ATENCIÓN! Tenemos TODO el material de Club-HD disponible por Mega y Google Drive, enlaces 100% activos y online hasta la fecha

Llévate tus cuentas Mega PRO III gratis con tu membresía VIP!
Todos los posts vivos con links de Mega y Google Drive.
Todo el material de Club-HD desbloqueado y sin publicidad.

Click Aquí para más información.


Para ver este contenido oculto, debes dar click en una de las siguientes reacciones : Like Like, Love Love, Haha Haha, Wow Wow, Sad Sad, Angry Angry

 
Última edición por un moderador:

Usuarios Que Están Viendo Este Tema (Total: 1, Miembros: 0, Invitados: 1)

Quién Leyó Este Tema (Total Miembros: 1)

Arriba