The Returned (2013) 720p BDRip Audio Inglés [Subt. Esp] (Thriller. Terror)

Maestro Revolver

Administrador
Registro
9 Ago 2012
Mensajes
3.157
Reacciones (ptje)
54.925


The-Returned.jpg





FichaTecnica.jpg


TÍTULO ORIGINAL: The Returned
AÑO: 2013
DURACIÓN: 98 min.
PAÍS: España
DIRECTOR: Manuel Carballo
GUIÓN: Hatem Khraiche
REPARTO: Emily Hampshire, Kris Holden-Ried, Shawn Doyle, Claudia Bassols, Emily Alatalo, Paulino Nunes, Melina Matthews, Jamie Lyle, Stephen Chambers
PRODUCTORA: Coproducción España-Canadá; Castelao Pictures / Ramaco Media
GÉNERO: Thriller. Terror | Zombis. Enfermedad
imdb-logo.png
: http://www.imdb.com/title/tt2093270/




Sinopsis.jpg


La humanidad convive con los "retornados", gente de apariencia normal que ha sido infectada por un virus devastador. Sólo la inyección diaria de una proteína evita que se transformen en zombis. Kate trabaja en una unidad de investigación intentando encontrar urgentemente una vacuna definitiva que impida que la epidemia se expanda. Además, la mueve una poderosa razón de carácter sentimental: su novio Álex es un "retornado". Cuando el Gobierno anuncia la escasez de la proteína y la paralización de las investigaciones, los infectados son internados en un centro militar de alta seguridad. Temiéndose lo peor, Kate y Álex deciden emprender la huida.




Trailer.jpg






Capturas.jpg


1.jpg


2.jpg


3.jpg


4.jpg


5.jpg


6.jpg


La pelicula NO tiene ninguna marca... solo colocamos el nombre de esta web en las capturas




MediaInfo.jpg


Código:
General
Format                                   : Matroska
Format version                           : Version 2
File size                                : 2.23 GiB
Duration                                 : 1h 37mn
Overall bit rate                         : 3 255 Kbps
Movie name                               : www.club-hd.com
Encoded date                             : UTC 2014-03-17 23:26:53
Writing application                      : mkvmerge v5.7.0 ('The Whirlwind') built on Jul  8 2012 20:08:51
Writing library                          : libebml v1.2.3 + libmatroska v1.3.0

Video
ID                                       : 1
Format                                   : AVC
Format/Info                              : Advanced Video Codec
Format profile                           : [email protected]
Format settings, CABAC                   : Yes
Format settings, ReFrames                : 6 frames
Muxing mode                              : Header stripping
Codec ID                                 : V_MPEG4/ISO/AVC
Duration                                 : 1h 37mn
Bit rate                                 : 2 550 Kbps
Width                                    : 1 280 pixels
Height                                   : 544 pixels
Display aspect ratio                     : 2.35:1
Frame rate mode                          : Constant
Frame rate                               : 24.000 fps
Color space                              : YUV
Chroma subsampling                       : 4:2:0
Bit depth                                : 8 bits
Scan type                                : Progressive
Bits/(Pixel*Frame)                       : 0.153
Stream size                              : 1.74 GiB (78%)
Title                                    : www.club-hd.com
Writing library                          : x264 core 138 r2358 9e941d1
Language                                 : English
Default                                  : Yes
Forced                                   : No
Color primaries                          : BT.709
Transfer characteristics                 : BT.709
Matrix coefficients                      : BT.709

Audio
ID                                       : 2
Format                                   : AC-3
Format/Info                              : Audio Coding 3
Mode extension                           : CM (complete main)
Format settings, Endianness              : Big
Muxing mode                              : Header stripping
Codec ID                                 : A_AC3
Duration                                 : 1h 37mn
Bit rate mode                            : Constant
Bit rate                                 : 640 Kbps
Channel(s)                               : 6 channels
Channel positions                        : Front: L C R, Side: L R, LFE
Sampling rate                            : 48.0 KHz
Bit depth                                : 16 bits
Compression mode                         : Lossy
Stream size                              : 448 MiB (20%)
Title                                    : www.club-hd.com
Language                                 : English
Default                                  : Yes
Forced                                   : No

Text
ID                                       : 3
Format                                   : UTF-8
Codec ID                                 : S_TEXT/UTF8
Codec ID/Info                            : UTF-8 Plain Text
Title                                    : www.club-hd.com
Language                                 : Spanish
Default                                  : Yes
Forced                                   : No

Menu
00:00:00.000                             : en:00:00:00.000
00:08:15.833                             : en:00:08:15.833
00:15:57.958                             : en:00:15:57.958
00:24:25.667                             : en:00:24:25.667
00:31:46.167                             : en:00:31:46.167
00:39:19.667                             : en:00:39:19.667
00:47:25.833                             : en:00:47:25.833
00:55:44.625                             : en:00:55:44.625
01:10:24.375                             : en:01:10:24.375
01:17:47.208                             : en:01:17:47.208
01:25:02.042                             : en:01:25:02.042
01:32:38.542                             : en:01:32:38.542




Descarga.jpg



MEGA.jpg

Tenemos TODO el material de Club-HD disponible por Mega, enlaces 100% activos y online hasta la fecha

Llévate tus cuentas Mega PRO III gratis con tu membresía VIP!
Todos los posts vivos con links de Mega.
Todo el material de Club-HD desbloqueado y sin publicidad.

Obtén más información sobre nuestras Membresías VIP



UPLOADED_BANNER.png

Para ver este contenido oculto, debes dar click en el botón"Like", o cualquiera de las otras reacciones:

Me Gusta Me Gusta, Me Encanta Me Encanta, Jaja Jaja, Wow Wow, Triste Triste, Molesto Molesto
 
Última edición por un moderador:
Volver