The Rite (2011) 720p BDRip Dual Latino-Inglés [Subt. Esp] (Drama. Terror. Thriller)

Maestro Revolver

Administrador
Registro
9 Ago 2012
Mensajes
3.157
Reacciones (ptje)
54.886


The-Rite.jpg




FichaTecnica.jpg


TÍTULO ORIGINAL: The Rite
AÑO: 2011
DURACIÓN: 118 min.
PAÍS: USA
DIRECTOR: Mikael Håfström (AKA Mikael Hafström)
GUIÓN: Michael Petroni (Novela: Matt Baglio)
REPARTO: Anthony Hopkins, Colin O'Donoghue, Alice Braga, Ciarán Hinds, Rutger Hauer, Toby Jones, Marta Gastini, Maria Grazia Cucinotta, Arianna Veronesi, Andrea Calligari, Chris Marquette
PRODUCTORA: Coproducción USA-Hungría; New Line Cinema / Contrafilm / Fletcher & Company / Mid Atlantic Films
GÉNERO: Drama. Terror. Thriller | Sobrenatural. Posesiones/Exorcismos. Religión. Basado en hechos reales
imdb-logo.png
: http://www.imdb.com/title/tt1161864/




Sinopsis.jpg


Michael Kovak (Colin O'Donoghue), un decepcionado seminarista norteamericano, decide asistir a un curso de exorcismos en el Vaticano, lo que hará que su fe se tambalee y tenga que enfrentarse a terribles fuerzas demoniacas. En Roma conocerá al Padre Lucas (Hopkins), un sacerdote poco ortodoxo que le enseñará el lado oscuro de la Fe.




Trailer.jpg






Capturas.jpg


1.jpg


2.jpg


3.jpg


4.jpg


5.jpg


6.jpg


La pelicula NO tiene ninguna marca... solo colocamos el nombre de esta web en las capturas




MediaInfo.jpg


Código:
General
Format                                   : Matroska
Format version                           : Version 2
File size                                : 4.67 GiB
Duration                                 : 1h 53mn
Overall bit rate                         : 5 881 Kbps
Movie name                               : www.club-hd.com
Encoded date                             : UTC 2013-11-20 03:10:02
Writing application                      : mkvmerge v5.7.0 ('The Whirlwind') built on Jul  8 2012 20:08:51
Writing library                          : libebml v1.2.3 + libmatroska v1.3.0

Video
ID                                       : 1
Format                                   : AVC
Format/Info                              : Advanced Video Codec
Format profile                           : [email protected]
Format settings, CABAC                   : Yes
Format settings, ReFrames                : 12 frames
Codec ID                                 : V_MPEG4/ISO/AVC
Duration                                 : 1h 53mn
Bit rate                                 : 4 857 Kbps
Width                                    : 1 280 pixels
Height                                   : 534 pixels
Display aspect ratio                     : 2.40:1
Frame rate mode                          : Constant
Frame rate                               : 23.976 fps
Color space                              : YUV
Chroma subsampling                       : 4:2:0
Bit depth                                : 8 bits
Scan type                                : Progressive
Bits/(Pixel*Frame)                       : 0.296
Stream size                              : 3.76 GiB (81%)
Title                                    : www.club-hd.com
Writing library                          : x264 core 115 r1947 b5a8ad7
Language                                 : English
Default                                  : Yes
Forced                                   : No

Audio #1
ID                                       : 2
Format                                   : AC-3
Format/Info                              : Audio Coding 3
Mode extension                           : CM (complete main)
Format settings, Endianness              : Big
Codec ID                                 : A_AC3
Duration                                 : 1h 53mn
Bit rate mode                            : Constant
Bit rate                                 : 384 Kbps
Channel(s)                               : 6 channels
Channel positions                        : Front: L C R, Side: L R, LFE
Sampling rate                            : 48.0 KHz
Bit depth                                : 16 bits
Compression mode                         : Lossy
Stream size                              : 312 MiB (7%)
Title                                    : www.club-hd.com  >>  Latino
Language                                 : Spanish
Default                                  : Yes
Forced                                   : No

Audio #2
ID                                       : 3
Format                                   : AC-3
Format/Info                              : Audio Coding 3
Mode extension                           : CM (complete main)
Format settings, Endianness              : Big
Codec ID                                 : A_AC3
Duration                                 : 1h 53mn
Bit rate mode                            : Constant
Bit rate                                 : 640 Kbps
Channel(s)                               : 6 channels
Channel positions                        : Front: L C R, Side: L R, LFE
Sampling rate                            : 48.0 KHz
Bit depth                                : 16 bits
Compression mode                         : Lossy
Stream size                              : 521 MiB (11%)
Title                                    : www.club-hd.com  >>  Inglés
Language                                 : English
Default                                  : No
Forced                                   : No

Text #1
ID                                       : 4
Format                                   : UTF-8
Codec ID                                 : S_TEXT/UTF8
Codec ID/Info                            : UTF-8 Plain Text
Title                                    : Forzados
Language                                 : Spanish
Default                                  : Yes
Forced                                   : No

Text #2
ID                                       : 5
Format                                   : UTF-8
Codec ID                                 : S_TEXT/UTF8
Codec ID/Info                            : UTF-8 Plain Text
Language                                 : Spanish
Default                                  : No
Forced                                   : No

Menu
00:00:00.000                             : :Chapter 01
00:10:14.196                             : :Chapter 02
00:18:23.685                             : :Chapter 03
00:29:16.546                             : :Chapter 04
00:40:35.433                             : :Chapter 05
00:50:16.013                             : :Chapter 06
01:01:11.376                             : :Chapter 07
01:11:14.270                             : :Chapter 08
01:20:51.555                             : :Chapter 09
01:27:14.896                             : :Chapter 10
01:37:09.740                             : :Chapter 11
01:49:43.201                             : :Chapter 12




Descarga.jpg



MEGA.jpg

Tenemos TODO el material de Club-HD disponible por Mega, enlaces 100% activos y online hasta la fecha

Llévate tus cuentas Mega PRO III gratis con tu membresía VIP!
Todos los posts vivos con links de Mega.
Todo el material de Club-HD desbloqueado y sin publicidad.

Obtén más información sobre nuestras Membresías VIP



UPLOADED_BANNER.png

Para ver este contenido oculto, debes dar click en el botón"Like", o cualquiera de las otras reacciones:

Me Gusta Me Gusta, Me Encanta Me Encanta, Jaja Jaja, Wow Wow, Triste Triste, Molesto Molesto
 
Última edición por un moderador:
Why the rito??? Jajaja a tu salud López Doriga.
 
Volver